<?xml version="1.0" standalone="no"?>
<!DOCTYPE svg PUBLIC "-//W3C//DTD SVG 1.1//EN" "http://www.w3.org/Graphics/SVG/1.1/DTD/svg11.dtd" >
<svg xmlns="http://www.w3.org/2000/svg">
<metadata></metadata>
<defs>
<font id="nyalaregular" horiz-adv-x="805" >
<font-face units-per-em="2048" ascent="1638" descent="-410" />
<missing-glyph horiz-adv-x="600" />
<glyph horiz-adv-x="0" />
<glyph unicode="&#xd;" horiz-adv-x="2048" />
<glyph unicode=" "  horiz-adv-x="600" />
<glyph unicode="&#x09;" horiz-adv-x="600" />
<glyph unicode="&#xa0;" horiz-adv-x="600" />
<glyph unicode="!" horiz-adv-x="468" d="M140 79q0 107 117 107q96 0 96 -107q0 -105 -117 -105q-45 0 -70.5 28.5t-25.5 76.5zM169 1141v3q0 20 24 25q63 12 150 12q24 0 24 -20v-5l-77 -813q-1 -18 -17 -19l-46 -3q-11 -1 -14.5 2.5t-4.5 14.5z" />
<glyph unicode="&#x22;" horiz-adv-x="621" d="M81 1217q0 20 12.5 25.5t46.5 5.5h63q21 0 29.5 -4.5t8.5 -21.5l-3 -28l-33 -275q-11 -83 -70 -83q-11 0 -23 3l-30 357q-1 8 -1 21zM361 1217q0 20 12.5 25.5t46.5 5.5h63q21 0 29.5 -4.5t8.5 -21.5l-3 -28l-33 -275q-11 -83 -70 -83q-11 0 -23 3l-30 357q-1 8 -1 21z " />
<glyph unicode="#" horiz-adv-x="806" d="M35 379h170l35 235l-164 -1l-5 76h180l38 250l83 15l-42 -265h176l38 250l83 15l-41 -265h180l-15 -72l-177 -1l-37 -237h193l-15 -72l-189 -1l-44 -281l-76 -6l43 286l-179 -1l-43 -279l-76 -6l42 285l-153 -1zM282 379h178l35 236l-176 -1z" />
<glyph unicode="$" horiz-adv-x="883" d="M95 142q0 43 33 66.5t81 23.5q21 0 42 -3v-29q0 -144 152 -155v372q-68 26 -114 49.5t-92 59.5t-69.5 86t-23.5 113q0 125 83 192.5t214 80.5v122l79 9l-1 -128q277 -9 277 -154q0 -42 -33.5 -64t-79.5 -22q-20 0 -41 3v28q0 58 -33 92.5t-90 43.5l-1 -353 q57 -20 96 -37.5t82.5 -44t70 -56t44 -71.5t17.5 -92q0 -133 -87 -206t-225 -90v-115l-72 -15l-1 125h-8q-35 0 -70 3.5t-78 14.5t-75.5 28.5t-54.5 49t-22 73.5zM250 779q0 -69 40 -108.5t112 -71.5l-1 329q-66 -9 -108.5 -47.5t-42.5 -101.5zM476 48q72 12 117.5 58 t45.5 115q0 66 -43.5 105t-118.5 68z" />
<glyph unicode="%" horiz-adv-x="1454" d="M50 692q0 308 299 308q270 0 270 -293q0 -311 -299 -311q-132 0 -201 78t-69 218zM198 716q0 -252 145 -252q128 0 128 219q0 249 -145 249q-128 0 -128 -216zM335 6l701 1008l79 -35l-703 -1008zM835 281q0 308 299 308q270 0 270 -293q0 -310 -299 -310 q-132 0 -201 77.5t-69 217.5zM983 305q0 -252 145 -252q128 0 128 219q0 249 -145 249q-128 0 -128 -216z" />
<glyph unicode="&#x26;" horiz-adv-x="1198" d="M50 284q0 47 13 88t30.5 70t54.5 62.5t64 53.5t80 57q-101 138 -101 262q0 79 31 140t83.5 97t118 54.5t140.5 18.5q47 0 93 -7.5t94 -25t77.5 -53.5t29.5 -85q0 -106 -125 -106q-23 0 -47 3v32q0 74 -35.5 117t-105.5 43q-85 0 -131.5 -53.5t-46.5 -140.5 q0 -50 16.5 -96.5t48.5 -97t99 -121.5t147 -147.5t212 -197.5q49 73 49 143q0 111 -118 220l1 15l155 84q104 -100 104 -235q0 -155 -125 -287q22 -20 81.5 -73t92.5 -84q7 -7 7 -15q0 -15 -22 -19q-77 -16 -147 -16q-26 0 -43 15l-97 83q-72 -50 -175.5 -79t-208.5 -29 q-170 0 -282 78.5t-112 231.5zM243 358q0 -131 80 -209t210 -78q126 0 230 69q-309 275 -428 420q-49 -45 -70.5 -92t-21.5 -110z" />
<glyph unicode="'" horiz-adv-x="341" d="M81 1217q0 20 12.5 25.5t46.5 5.5h63q21 0 29.5 -4.5t8.5 -21.5l-3 -28l-33 -275q-11 -83 -70 -83q-11 0 -23 3l-30 357q-1 8 -1 21z" />
<glyph unicode="(" horiz-adv-x="666" d="M160 432q0 188 43 360.5t135 320t223 235.5l45 -50q-158 -121 -242 -356t-84 -510q0 -178 35.5 -342t110 -303.5t180.5 -219.5l-45 -50q-131 88 -223 235.5t-135 319.5t-43 360z" />
<glyph unicode=")" horiz-adv-x="666" d="M60 -433q158 123 242 357t84 508q0 275 -84.5 509.5t-241.5 356.5l45 50q194 -132 297.5 -380t103.5 -536q0 -187 -43.5 -360t-135.5 -320t-222 -235z" />
<glyph unicode="*" horiz-adv-x="772" d="M80 1089q0 2 2 16q11 39 49 91l228 -125l-12 78q-20 127 -20 161q0 36 36 36q40 0 101 -18l-48 -257q199 99 217 105q35 11 45 -22q8 -26 14 -103l-259 -33q130 -130 167 -174q7 -10 7 -22q0 -14 -15 -28q-25 -15 -92 -46l-112 238q-102 -197 -115 -213q-11 -17 -27 -17 q-11 0 -21 10q-27 16 -73 73l191 179q-199 30 -238 43q-25 6 -25 28z" />
<glyph unicode="+" d="M40 429h323l-1 320l78 5l-2 -325h327l-15 -72l-312 -2l-2 -326l-71 10l-1 316l-319 -2z" />
<glyph unicode="," horiz-adv-x="379" d="M54 -201q88 74 88 196q0 84 -37 147q-10 23 11 28q76 20 136 20q21 0 31 -25q15 -35 15 -85q0 -97 -56.5 -182t-157.5 -126z" />
<glyph unicode="-" horiz-adv-x="605" d="M46 441h513l-5 -92l-503 -4z" />
<glyph unicode="." horiz-adv-x="379" d="M80 82q0 110 121 110q47 0 72.5 -29t25.5 -81q0 -108 -120 -108q-48 0 -73.5 28.5t-25.5 79.5z" />
<glyph unicode="/" horiz-adv-x="532" d="M67 -180l363 1377l87 -17l-362 -1377z" />
<glyph unicode="0" horiz-adv-x="966" d="M80 478q0 523 425 523q187 0 284 -129.5t97 -369.5q0 -256 -109.5 -392.5t-315.5 -136.5q-186 0 -283.5 133t-97.5 372zM265 521q0 -464 231 -464q205 0 205 402q0 457 -231 457q-205 0 -205 -395z" />
<glyph unicode="1" horiz-adv-x="499" d="M35 953q192 33 282 33q32 0 32 -36v-923q0 -24 -24 -27q-69 -12 -130 -12q-24 0 -24 24v790q0 64 -12.5 84.5t-55.5 20.5q-29 0 -62 -4z" />
<glyph unicode="2" horiz-adv-x="904" d="M71 121q0 9 11 15q127 73 225.5 155.5t156.5 160t87 148t29 132.5q0 83 -48 133.5t-133 50.5q-94 0 -153.5 -60t-78.5 -174l-51 5q0 17 4.5 113t7.5 131q2 16 20 22q137 47 281 47q169 0 258 -64t89 -171q0 -140 -135.5 -299t-407.5 -320h356q43 0 68.5 6.5t43.5 28 t27.5 46.5t24.5 78l46 -4q0 -43 -21 -295q-1 -7 -10 -7q-89 1 -190 1h-287q-103 0 -195 -1q-10 0 -11 10l-13 100q-1 3 -1 12z" />
<glyph unicode="3" horiz-adv-x="930" d="M55 -2q0 49 38.5 77t92.5 28q21 0 48 -5q-2 -22 -2 -31q0 -89 46 -139t132 -50q117 0 183 65.5t66 175.5q0 63 -17 110.5t-45.5 77t-71.5 48t-90.5 25.5t-106.5 7h-25l-9 75h17q156 0 230.5 56t74.5 181q0 108 -56 162.5t-150 54.5t-157.5 -57.5t-81.5 -169.5l-51 5 q0 17 4.5 110.5t7.5 130.5q2 16 20 22q126 43 284 43q61 0 113 -7.5t101.5 -26t84 -47.5t55.5 -76t21 -107q0 -93 -61 -172t-172 -116v-4q27 -5 57.5 -14t72.5 -32t74 -53.5t55 -82t23 -113.5q0 -72 -26 -132.5t-69.5 -101.5t-102 -70t-123 -42t-131.5 -13q-94 0 -173 23 t-129.5 71.5t-50.5 113.5z" />
<glyph unicode="4" horiz-adv-x="1013" d="M40 237q147 227 263.5 384t285.5 349q6 7 19 10q60 11 117 11q24 0 24 -25l1 -712q178 6 211 6q21 0 21 -21q0 -9 -1 -18l-5 -76l-227 -1v-306q0 -24 -24 -28q-69 -12 -130 -12q-24 0 -24 25v320l-520 -3zM145 240q61 2 215 5t211 4v579q-203 -243 -426 -588z" />
<glyph unicode="5" horiz-adv-x="951" d="M60 -2q0 49 38.5 76.5t92.5 27.5q21 0 48 -5q-2 -22 -2 -30q0 -89 49.5 -139t132.5 -50q117 0 185 85.5t68 213.5q0 135 -81.5 212.5t-217.5 77.5q-87 0 -218 -41l-4 3l20 543q1 24 40 16q172 -39 284 -39q169 0 273 72l28 -28q-57 -106 -158.5 -164t-231.5 -58 q-74 0 -155 21l-9 -263q33 12 75 27t57 20t37 11.5t36 8t33 1.5q121 0 209.5 -54.5t130 -139t41.5 -186.5q0 -79 -29 -153.5t-84 -136.5t-144.5 -99.5t-200.5 -37.5q-139 0 -241 56t-102 152z" />
<glyph unicode="6" horiz-adv-x="1037" d="M95 496q0 130 37.5 252t106.5 220.5t179.5 158.5t244.5 60q81 0 173 -24l-13 -60q-53 10 -106 10q-94 0 -168.5 -34t-123.5 -95t-79 -135t-44 -163q16 7 49 20t46 18.5t38.5 15.5t38 14t31.5 10t30.5 8.5t25 4.5t24.5 2q171 0 274 -105.5t103 -270.5 q0 -183 -126.5 -306.5t-308.5 -123.5q-138 0 -237.5 72.5t-147 189t-47.5 261.5zM291 545q0 -60 7 -121.5t26 -128.5t47.5 -118t75 -84t105.5 -33q68 0 120.5 47t77 114.5t24.5 138.5q0 134 -80 211.5t-214 77.5q-76 0 -187 -32q-2 -24 -2 -36v-36z" />
<glyph unicode="7" horiz-adv-x="924" d="M55 674q0 140 17 300q2 8 10 8q178 -2 189 -2h570l8 -11l-423 -1125q-7 -19 -35 -26q-80 -22 -167 -22q-16 0 -16 15q0 9 6 19l488 1004h-437q-43 0 -69 -7.5t-44 -30t-27.5 -48.5t-23.5 -78z" />
<glyph unicode="8" horiz-adv-x="1010" d="M70 278q0 90 56 158t198 161q-100 55 -156.5 122.5t-56.5 166.5q0 95 62 166t155.5 104t202.5 33q94 0 175 -30t133.5 -90.5t52.5 -139.5q0 -75 -54.5 -140.5t-177.5 -149.5q60 -30 104.5 -60t86 -71.5t63 -94t21.5 -114.5q0 -80 -40 -144t-106 -102.5t-144.5 -59 t-161.5 -20.5q-108 0 -199.5 32.5t-152.5 103.5t-61 169zM250 312q0 -113 75 -184.5t191 -71.5q97 0 163.5 56.5t66.5 148.5q0 28 -9 54t-20.5 46t-36.5 41.5t-43.5 35t-55 33t-56.5 29.5t-64 30t-62 29q-149 -98 -149 -247zM277 930q0 -53 46 -100.5t89 -70.5t144 -70 q16 -8 25 -12q136 101 136 226q0 92 -58.5 146.5t-169.5 54.5q-94 0 -153 -47t-59 -127z" />
<glyph unicode="9" horiz-adv-x="1021" d="M75 581q0 185 122.5 302t308.5 117q137 0 236 -73t146.5 -189.5t47.5 -261.5q0 -136 -38.5 -259.5t-110 -220t-185 -153.5t-252.5 -57q-88 0 -185 30l13 60q52 -16 118 -16q106 0 187.5 36t133 102.5t81 150.5t38.5 188q-19 -8 -60 -24.5t-57.5 -23t-47.5 -18.5 t-46.5 -17t-37 -11.5t-37 -8.5t-28.5 -2q-163 0 -255 95.5t-92 253.5zM262 636q0 -131 66.5 -202.5t198.5 -71.5q86 0 213 40v25q0 60 -7 121.5t-25.5 128.5t-46.5 118t-74.5 84t-104.5 33q-103 0 -161.5 -82.5t-58.5 -193.5z" />
<glyph unicode=":" horiz-adv-x="379" d="M120 82q0 110 121 110q47 0 72.5 -29t25.5 -81q0 -108 -120 -108q-48 0 -73.5 28.5t-25.5 79.5zM120 592q0 110 121 110q47 0 72.5 -29t25.5 -81q0 -108 -120 -108q-48 0 -73.5 28.5t-25.5 79.5z" />
<glyph unicode=";" horiz-adv-x="379" d="M94 -201q88 74 88 196q0 84 -37 147q-10 23 11 28q76 20 136 20q21 0 31 -25q15 -35 15 -85q0 -97 -56.5 -182t-157.5 -126zM120 592q0 110 121 110q47 0 72.5 -29t25.5 -81q0 -108 -120 -108q-48 0 -73.5 28.5t-25.5 79.5z" />
<glyph unicode="&#x3c;" d="M40 361l13 61l671 282l33 -68l-595 -247l593 -242l-25 -72z" />
<glyph unicode="=" d="M40 279h725l-15 -72l-705 -4zM40 569h725l-15 -72l-705 -4z" />
<glyph unicode="&#x3e;" d="M48 143l595 247l-593 242l25 72l690 -286l-13 -61l-671 -282z" />
<glyph unicode="?" horiz-adv-x="751" d="M120 1077q0 57 55.5 84.5t136.5 27.5q95 0 177.5 -30.5t137 -96t54.5 -154.5q0 -44 -13 -80t-41.5 -68t-53 -52.5t-68.5 -51.5q-7 -5 -26 -18t-26 -18t-23.5 -17t-23 -19t-18.5 -18.5t-17.5 -20.5t-11.5 -21t-8.5 -24.5t-2.5 -25.5q0 -54 56 -134q-50 -34 -89 -34 q-55 0 -87 36t-32 90q0 41 16 78t50 71t61.5 56t75.5 55q101 71 131 102q48 51 48 102q0 70 -61 104t-153 34q-126 0 -210 -54q-34 55 -34 97zM199 79q0 107 117 107q96 0 96 -107q0 -105 -117 -105q-45 0 -70.5 28.5t-25.5 76.5z" />
<glyph unicode="@" horiz-adv-x="1513" d="M85 307q0 154 53.5 287.5t149 229.5t233.5 150.5t300 54.5q262 0 424.5 -157.5t162.5 -428.5q0 -96 -26.5 -179t-77.5 -146t-131 -99.5t-181 -36.5q-38 0 -85 6q-8 2 -11 3t-6.5 4.5t-5.5 10.5l-16 49q-63 -31 -135 -52.5t-105 -21.5q-87 0 -134.5 60t-47.5 131 q0 99 68 155q49 41 132.5 56.5t217.5 19.5l1 32q3 94 -27 141t-105 47q-88 0 -219 -46l-19 64q89 37 173 59t128 22q126 0 177.5 -65t49.5 -217l-4 -350q7 -1 17 -1h15q62 0 108.5 30t73 80.5t39 109t12.5 122.5q0 222 -138 355.5t-356 133.5q-133 0 -242 -45.5t-180.5 -125 t-110 -186.5t-38.5 -232q0 -273 166.5 -445t445.5 -172q126 0 312 62l25 -59q-210 -100 -414 -100q-150 0 -276.5 53.5t-212 146.5t-133 219.5t-47.5 270.5zM603 205q0 -48 29.5 -84t98.5 -36q48 0 129 39l3 214q-13 -1 -45.5 -3t-44.5 -3t-36.5 -3.5t-36 -6t-28 -9t-27 -13 t-18.5 -17.5q-24 -30 -24 -78z" />
<glyph unicode="A" horiz-adv-x="1139" d="M15 -2q0 3 1 4l458 1098l-21 58q-2 10 -2 11q0 15 19 18q77 14 141 14q20 0 29 -23l446 -1148q3 -8 3 -11q0 -17 -20 -19q-72 -12 -150 -12q-17 0 -23 14l-163 424l-437 -7l-154 -415q-5 -11 -18 -12q-32 -4 -93 -4q-16 0 -16 10zM328 504h375l-190 496z" />
<glyph unicode="B" horiz-adv-x="1013" d="M31 1150q246 40 423 40q459 0 459 -279q0 -92 -61.5 -172t-171.5 -117v-4q21 -4 45.5 -11t58.5 -21t64 -37t57 -52.5t42.5 -73.5t15.5 -95q0 -22 -3.5 -45.5t-15 -58.5t-30.5 -66t-54.5 -63t-82 -55.5t-117.5 -38t-157 -14.5q-61 0 -155.5 6.5t-163.5 6.5q-24 0 -24 25 v990q0 47 -20 65t-59 18q-20 0 -44 -3zM346 85q56 -14 156 -14q56 0 101 14.5t73 37t46.5 52t25.5 58t7 57.5q0 79 -24.5 133t-73.5 83.5t-110 41.5t-146 12h-28q-18 0 -27 -1v-474zM346 640q7 0 19.5 -0.5t18.5 -0.5q169 0 248.5 55t79.5 180q0 121 -76 178t-209 57 q-48 0 -64.5 -7t-16.5 -35v-427z" />
<glyph unicode="C" horiz-adv-x="1181" d="M82 588q0 189 88.5 326.5t239 206t344.5 68.5q132 0 299 -36q19 -5 21 -22q12 -165 12 -243l-50 -5q-6 59 -36 104t-76.5 70.5t-98.5 38t-109 12.5q-210 0 -320 -131t-110 -343q0 -120 33 -221.5t96.5 -177.5t163 -118.5t226.5 -42.5q137 0 299 63l27 -62 q-93 -52 -220 -77.5t-210 -25.5q-181 0 -322.5 79.5t-219 219.5t-77.5 317z" />
<glyph unicode="D" horiz-adv-x="1282" d="M31 1147q250 42 456 42q725 0 725 -576q0 -148 -53.5 -268t-149 -199t-227 -121.5t-286.5 -42.5q-57 0 -148 9t-164 9q-24 0 -24 25v987q0 48 -20 66t-59 18q-20 0 -44 -3zM346 80q68 -16 158 -16q239 0 371 140t132 384q0 234 -137 375.5t-379 141.5h-51 q-51 0 -72.5 -8.5t-21.5 -39.5v-977z" />
<glyph unicode="E" horiz-adv-x="975" d="M31 1122q52 10 151 23t141 13h364q33 0 153 2q16 0 18 -15q12 -165 12 -256l-50 -5q-9 37 -16.5 62.5t-18.5 47t-19 34.5t-25 23t-29.5 14.5t-39.5 7t-47 3t-60 0.5h-176q-32 0 -37.5 -5.5t-5.5 -32.5v-405q378 19 389 19q28 0 28 -30q0 -28 -7 -82l-410 14v-399 q0 -49 10 -59.5t63 -10.5h129h59t48.5 1.5t42.5 4t34.5 8t31 13t25.5 19.5t24.5 26t22 35.5t24 45t24.5 56.5l50 -11q0 -19 -16.5 -109t-33.5 -143q-11 -33 -49 -33q-35 0 -201.5 1t-283.5 1h-166q-24 0 -24 25v961q0 47 -21 65.5t-59 18.5q-20 0 -43 -3z" />
<glyph unicode="F" horiz-adv-x="885" d="M31 1122q52 10 151 23t141 13h356q33 0 153 2q16 0 18 -15q5 -33 8.5 -129t3.5 -127l-50 -5q-9 37 -16.5 62.5t-18.5 47t-19 34.5t-25 23t-29.5 14.5t-39.5 7t-47 3t-60 0.5h-168q-32 0 -37.5 -5.5t-5.5 -32.5v-447q378 19 379 19q28 0 28 -30q0 -28 -7 -82l-400 14v-485 q0 -24 -24 -27q-68 -12 -138 -12q-24 0 -24 24v974q0 47 -21 65.5t-59 18.5q-20 0 -43 -3z" />
<glyph unicode="G" horiz-adv-x="1257" d="M79 580q0 147 52 263.5t145 191.5t218.5 114.5t274.5 39.5q142 0 307 -36q19 -4 21 -22q12 -165 12 -243l-50 -5q-10 80 -62.5 132.5t-120 72.5t-148.5 20q-215 0 -330 -129.5t-115 -348.5q0 -259 143 -413.5t410 -154.5q54 0 98 5v314q0 56 -16.5 73.5t-62.5 17.5 q-4 0 -14 -0.5t-16 -0.5l-5 56q170 13 266 13q32 0 32 -32v-472q0 -11 -11 -16q-160 -48 -354 -48q-304 0 -489 161t-185 447z" />
<glyph unicode="H" horiz-adv-x="1275" d="M31 1145q193 36 283 36q32 0 32 -32v-486h583v468q0 23 24 28q63 12 138 12q24 0 24 -25v-1119q0 -24 -24 -27q-67 -12 -138 -12q-24 0 -24 24v570l-583 -7v-548q0 -24 -24 -27q-68 -12 -138 -12q-24 0 -24 24v990q0 52 -20 71.5t-59 19.5q-21 0 -44 -3z" />
<glyph unicode="I" horiz-adv-x="506" d="M31 1145q193 36 283 36q32 0 32 -32v-1122q0 -24 -24 -27q-68 -12 -138 -12q-24 0 -24 24v990q0 52 -20 71.5t-59 19.5q-21 0 -44 -3z" />
<glyph unicode="J" horiz-adv-x="465" d="M-84 -402q66 35 109.5 80t66.5 85t34 111.5t12.5 119.5t1.5 150v858q0 52 -20 71.5t-59 19.5q-21 0 -44 -3l-6 55q192 36 282 36q32 0 32 -32v-978q0 -136 -14.5 -225.5t-56 -168.5t-116 -135.5t-193.5 -105.5z" />
<glyph unicode="K" horiz-adv-x="1102" d="M31 1145q193 36 283 36q32 0 32 -32v-534l492 515q22 22 46 29q40 12 133 12q21 0 21 -18q0 -8 -6 -14l-496 -467l531 -642q5 -8 5 -11q0 -7 -6 -12.5t-15 -6.5q-61 -12 -173 -12q-23 0 -37 17l-495 609v-587q0 -24 -24 -27q-68 -12 -138 -12q-24 0 -24 24v990 q0 52 -20 71.5t-59 19.5q-21 0 -44 -3z" />
<glyph unicode="L" horiz-adv-x="920" d="M31 1145q193 36 283 36q32 0 32 -32v-994q0 -49 10 -59.5t63 -10.5h99q47 0 72.5 0.5t57.5 4t48 8.5t37.5 16t33.5 25.5t28.5 38.5t30 52t30.5 69l50 -11q0 -18 -17.5 -111t-34.5 -146q-11 -33 -49 -33q-200 2 -455 2h-166q-24 0 -24 25v977q0 52 -20 71.5t-59 19.5 q-21 0 -44 -3z" />
<glyph unicode="M" horiz-adv-x="1535" d="M50 -1q0 7 1 9l195 1062l-32 88q-2 8 -2 10q0 16 20 19q75 14 142 14q19 0 28 -23l358 -943l367 840l-10 83q-1 1 -1 8q0 17 19 21q75 14 139 14q25 0 28 -23l136 -1146q1 -5 1 -11q0 -20 -19 -21q-69 -12 -146 -12q-21 0 -22 14l-106 912l-373 -910q-5 -11 -18 -12 q-32 -4 -86 -4q-16 0 -22 14l-350 924l-115 -921q-2 -11 -18 -12q-40 -5 -100 -5q-14 0 -14 11z" />
<glyph unicode="N" horiz-adv-x="1220" d="M69 1166q0 15 18 18q65 14 167 14q15 0 31 -23l691 -917l-25 897q0 10 16 13q72 9 106 9q16 0 16 -15l-24 -975v-183q0 -11 -16 -12q-32 -4 -86 -4q-12 0 -24 14l-696 924l25 -920q0 -9 -16 -12q-56 -7 -106 -7q-16 0 -16 14l25 1042l-82 112q-4 4 -4 11z" />
<glyph unicode="O" horiz-adv-x="1350" d="M80 570q0 298 168 458.5t458 160.5q260 0 412 -156.5t152 -433.5q0 -299 -168.5 -463t-457.5 -164q-260 0 -412 160t-152 438zM287 623q0 -87 14 -167t45.5 -154t78 -128t116.5 -86.5t155 -32.5q94 0 167 41t116 111t64.5 156t21.5 183q0 109 -23.5 206t-70.5 177.5 t-128 128t-187 47.5q-95 0 -167.5 -39.5t-115.5 -108t-64.5 -153t-21.5 -181.5z" />
<glyph unicode="P" horiz-adv-x="963" d="M31 1149q240 41 423 41q484 0 484 -322q0 -81 -29 -145.5t-77.5 -107.5t-117 -72.5t-143 -44t-159.5 -17.5l-9 57q167 13 248.5 79.5t81.5 213.5q0 130 -81.5 204t-214.5 74q-28 0 -40.5 -0.5t-26.5 -4.5t-19 -13.5t-5 -25.5v-1038q0 -24 -24 -27q-68 -12 -138 -12 q-24 0 -24 24v1001q0 48 -20 66t-59 18q-20 0 -44 -3z" />
<glyph unicode="Q" horiz-adv-x="1350" d="M80 570q0 298 168 458.5t458 160.5q260 0 412 -156.5t152 -433.5q0 -231 -114 -382.5t-308 -205.5v-8q53 -5 88 -13t72.5 -25.5t63.5 -50.5t43 -82l14 -41q39 -113 68.5 -144.5t93.5 -31.5l5 -52q-82 -18 -152 -18q-44 0 -75 13.5t-55.5 46t-40.5 66.5t-39 94l-24 64 q-31 83 -95.5 113t-160.5 30q-260 0 -417 161t-157 437zM285 623q0 -109 23.5 -207t70.5 -180.5t128.5 -131.5t188.5 -49q94 0 167 41t116 111.5t64.5 156.5t21.5 183q0 86 -14 165t-45.5 151.5t-78.5 125.5t-117 84.5t-156 31.5q-95 0 -167.5 -39.5t-115.5 -108t-64.5 -153 t-21.5 -181.5z" />
<glyph unicode="R" horiz-adv-x="1077" d="M31 1150q231 40 427 40q458 0 458 -282q0 -221 -253 -313v-6q154 -30 199 -169l74 -229q29 -92 53 -116.5t78 -24.5l3 -51q-82 -18 -152 -18q-65 0 -102.5 34t-63.5 124l-71 244q-29 100 -83 128t-189 32l-9 57q159 10 237 74t78 201q0 114 -80 173t-209 59 q-45 0 -62.5 -7.5t-17.5 -35.5v-1037q0 -24 -24 -27q-68 -12 -138 -12q-24 0 -24 24v1003q0 47 -20 65t-59 18q-20 0 -44 -3z" />
<glyph unicode="S" horiz-adv-x="924" d="M58 842q0 76 25.5 136t67.5 98.5t100 63.5t120 35.5t131 10.5q118 0 242 -31q19 -5 21 -22q3 -37 7.5 -130.5t4.5 -110.5l-51 -5q-19 106 -85.5 158.5t-166.5 52.5q-102 0 -170 -51.5t-68 -153.5q0 -36 17 -67t32.5 -49t63 -42.5t66 -32t83.5 -31.5l15 -6 q45 -17 70 -27.5t65.5 -29.5t64.5 -36t52.5 -43.5t44 -54.5t26.5 -66t11 -82q0 -80 -28.5 -142.5t-74 -101.5t-109 -64.5t-128.5 -35.5t-137 -10q-127 0 -266 30q-19 5 -21 22q-3 36 -7 138t-4 122l50 5q14 -116 90.5 -174t193.5 -58q70 0 127 20t95.5 69.5t38.5 121.5 q0 42 -17 74t-61.5 59.5t-72 40t-97.5 40.5q-18 7 -27 11q-45 18 -70 28.5t-66 31t-64 37.5t-52.5 44.5t-44.5 56t-26 67.5t-11 84z" />
<glyph unicode="T" horiz-adv-x="1092" d="M20 877q0 21 6 127t11 143q1 15 18 15q161 -4 327 -4h333q168 0 329 4q14 0 16 -15q5 -36 8.5 -136.5t3.5 -133.5l-50 -5q-7 32 -13 55.5t-14.5 44t-14.5 35t-17.5 26l-19 19t-24.5 13t-28 8t-35 4t-40.5 1.5h-48.5h-128v-1051q0 -24 -24 -27q-67 -12 -138 -12 q-24 0 -24 24v1066h-123q-40 0 -59.5 -0.5t-47.5 -3t-40.5 -7.5t-30 -15.5t-26 -24.5t-20 -36.5t-19.5 -51t-17 -67.5z" />
<glyph unicode="U" horiz-adv-x="1225" d="M21 1145q193 36 283 36q32 0 32 -32v-784q0 -142 71 -205t192 -63q116 0 280 80v954q0 23 24 28q63 12 138 12q24 0 24 -25v-1119q0 -24 -24 -27q-68 -12 -131 -12q-22 0 -24 24l-7 82q-217 -120 -407 -120q-142 0 -232 76.5t-90 225.5v726q0 52 -20 71.5t-59 19.5 q-20 0 -44 -3z" />
<glyph unicode="V" horiz-adv-x="1149" d="M-28 1145q76 16 158 26t103 10q14 0 21 -8t15 -28l357 -931h4l322 915q8 23 33 30q44 12 108 12q18 0 18 -12q0 -6 -5 -17l-475 -1135q-8 -15 -17 -17q-22 -5 -80 -5q-15 0 -21 15l-394 1015q-17 45 -40.5 62t-58.5 17q-21 0 -42 -4z" />
<glyph unicode="W" horiz-adv-x="1668" d="M-30 1145q76 16 159.5 26t105.5 10q25 0 36 -36l295 -922h4l218 661l-81 253q-4 11 1 19t14 10q71 15 143 15q23 0 30 -23l304 -944h4l268 915q6 22 33 30q38 12 107 12q15 0 17 -9v-5q0 -7 -4 -15l-410 -1134q-6 -15 -17 -17q-48 -6 -103 -6q-16 0 -21 15l-236 731 l-253 -723q-6 -15 -17 -17q-48 -6 -103 -6q-16 0 -21 15l-326 1015q-15 45 -39 62t-60 17q-21 0 -42 -4z" />
<glyph unicode="X" horiz-adv-x="988" d="M-12 1145q76 16 156 26t100 10q14 0 21.5 -7t18.5 -27l236 -400l243 383l1 1v1q16 22 35 27q44 12 108 12q19 0 19 -13q0 -8 -6 -16l-341 -495l365 -617q4 -4 4 -12q0 -16 -20 -18q-69 -12 -156 -12q-16 0 -27 15l-290 489l-289 -462q-14 -23 -36 -29q-41 -11 -111 -11 q-19 0 -19 12q0 8 6 16l389 575l-254 429q-25 42 -48 57t-57 15q-22 0 -42 -4z" />
<glyph unicode="Y" horiz-adv-x="986" d="M-30 1146q76 16 151.5 25.5t95.5 9.5q14 0 22.5 -8t19.5 -27l284 -510l242 493q12 24 34 30q44 12 108 12q18 0 18 -12q0 -3 -6 -17l-359 -602v-513q0 -24 -24 -27q-68 -12 -138 -12q-24 0 -24 24v510l-277 494q-25 45 -47 62.5t-54 17.5q-12 0 -40 -5z" />
<glyph unicode="Z" horiz-adv-x="1029" d="M30 55q0 5 4 9l694 1014h-361q-40 0 -59.5 -0.5t-47.5 -3t-40.5 -7.5t-30 -15.5t-26 -24.5t-20 -36.5t-19.5 -51t-17 -67.5l-50 5q0 21 6 127t11 143q2 15 16 15q161 -4 329 -4h234q83 0 300 4q6 0 9 -5q10 -30 10 -46q0 2 -1 -1l-1 -6l-703 -1022h389q49 0 77 1.5 t57.5 9t45.5 21t32.5 38t27.5 59.5t23 87l50 -5q0 -19 -7.5 -130.5t-12.5 -149.5q-2 -14 -16 -14q-181 3 -329 3h-239q-65 0 -317 -3q-6 0 -8 6q-10 32 -10 50z" />
<glyph unicode="[" horiz-adv-x="643" d="M191 -463v1781l297 10l-10 -93l-199 3v-1621l209 3l-10 -93z" />
<glyph unicode="\" horiz-adv-x="532" d="M15 1180l87 17l363 -1377l-88 -17z" />
<glyph unicode="]" horiz-adv-x="643" d="M155 -473l10 93l199 -3v1621l-209 -3l10 93l287 -10v-1781z" />
<glyph unicode="^" d="M65 589l292 591l79 9l295 -607l-81 -28l-252 525l-257 -527z" />
<glyph unicode="_" horiz-adv-x="600" d="M-69 -159h739v-80h-739v80z" />
<glyph unicode="`" horiz-adv-x="500" d="M49 1165q0 10 16 14q50 11 119 11q26 0 33 -27l80 -329l-7 -8h-54l-183 327q-4 7 -4 12z" />
<glyph unicode="a" horiz-adv-x="811" d="M52 181q0 105 76 162q58 43 152 59.5t242 20.5l1 34v16q-1 87 -31 131q-34 48 -117 48q-96 0 -246 -48l-22 67q99 40 193 62.5t146 22.5q142 0 200 -68q56 -66 55 -215v-11l-5 -326q-1 -41 15 -111q1 -1 1 -8q0 -14 -20 -17q-60 -12 -127 -12q-19 0 -25 23l-13 48 q-75 -33 -153.5 -55.5t-116.5 -22.5q-67 0 -115.5 33t-69 77t-20.5 90zM228 216q0 -51 33.5 -88.5t111.5 -37.5q18 0 59.5 10t85.5 31l3 224q-13 -1 -50.5 -3t-50.5 -3t-41.5 -4t-41 -6.5t-31 -9t-30 -13.5t-20.5 -19q-28 -33 -28 -81z" />
<glyph unicode="b" horiz-adv-x="969" d="M20 1291q97 27 171.5 41t94.5 14q32 0 32 -36v-633q256 77 337 77q74 0 133.5 -55.5t90 -135t30.5 -160.5q0 -103 -38 -185t-104 -133t-150 -77.5t-180 -26.5q-93 0 -180 20.5t-117 50.5v1102q0 52 -16.5 72t-56.5 20q-19 0 -41 -3zM318 182q0 -60 52.5 -88.5 t118.5 -28.5q243 0 243 250q0 79 -23 153.5t-72 126t-112 51.5q-64 0 -207 -44v-420z" />
<glyph unicode="c" horiz-adv-x="786" d="M60 345q0 183 129 296t321 113q55 0 100 -12.5t77.5 -46.5t32.5 -87q0 -51 -33.5 -75.5t-88.5 -24.5q-22 0 -44 3v19q0 68 -21.5 99.5t-92.5 31.5q-105 0 -154 -65.5t-49 -171.5q0 -143 76 -233t222 -90q90 0 193 35l23 -56q-93 -41 -198.5 -70t-161.5 -29 q-102 0 -179 51.5t-114.5 133t-37.5 179.5z" />
<glyph unicode="d" horiz-adv-x="956" d="M62 331q0 132 64 229t170 145.5t238 48.5q60 0 119 -9v409q0 52 -16.5 72t-56.5 20q-18 0 -41 -3l-6 48q97 27 171.5 41t94.5 14q32 0 32 -36v-1168q0 -30 15 -117l1 -6q0 -16 -20 -19q-53 -12 -129 -12q-19 0 -25 23l-15 56q-226 -86 -313 -86q-83 0 -149.5 55.5 t-100 135t-33.5 159.5zM239 406q0 -52 12 -104.5t36.5 -101.5t69 -79.5t102.5 -30.5q79 0 194 49v413q0 60 -52.5 88.5t-118.5 28.5q-125 0 -184 -70.5t-59 -192.5z" />
<glyph unicode="e" horiz-adv-x="801" d="M60 345q0 180 124.5 294.5t303.5 114.5q111 0 174 -64.5t63 -168.5q0 -42 -17 -110l-470 -25q9 -130 87.5 -207.5t218.5 -77.5q101 0 200 40l22 -56q-93 -45 -201.5 -74.5t-169.5 -29.5q-78 0 -143 30t-106 81t-63.5 116t-22.5 137zM237 447l307 22q5 24 5 54 q0 59 -34 97.5t-93 38.5q-90 0 -136.5 -60t-48.5 -152z" />
<glyph unicode="f" horiz-adv-x="551" d="M27 707q19 2 60 4.5t58 3.5v144q0 140 32.5 229.5t95.5 152.5q108 106 263 106q49 0 93.5 -12.5t79 -44.5t34.5 -79q0 -52 -32.5 -76.5t-86.5 -24.5q-20 0 -42 3v21q0 64 -19.5 95t-80.5 31q-49 0 -82 -22.5t-49 -64.5t-22 -87.5t-6 -107.5v-254q133 6 211 6q22 0 21 -23 l-4 -62l-228 -1v-617q0 -24 -24 -27q-69 -12 -130 -12q-24 0 -24 24v631l-115 -3z" />
<glyph unicode="g" horiz-adv-x="894" d="M32 -260q0 39 20 81t41.5 69t64.5 75q-28 14 -48 45t-20 58q0 30 27.5 68.5t92.5 99.5q-69 35 -107.5 97t-38.5 138q0 126 97 204.5t251 78.5q118 0 201 -56q199 51 221 51q28 0 28 -30q0 -28 -7 -82l-191 17q64 -73 64 -168q0 -129 -97.5 -209t-251.5 -80q-64 0 -103 13 q-2 -3 -10 -12.5t-11 -13t-8.5 -12t-8 -13.5t-4.5 -12t-2 -14q0 -69 256 -69q338 0 338 -189q0 -63 -35.5 -119.5t-91.5 -96t-122.5 -69t-130 -43.5t-113.5 -14q-67 0 -133.5 22t-117 71t-50.5 114zM170 -189q0 -40 26 -71t68 -47.5t86.5 -24.5t89.5 -8q38 0 76.5 7.5 t76.5 22.5t62 45t24 69q0 34 -20 57t-57 33.5t-74 14.5t-87 4q-136 0 -217 24q-29 -40 -41.5 -67t-12.5 -59zM240 496q0 -89 41 -153t122 -64q74 0 112 49t38 124q0 90 -42 155t-123 65q-74 0 -111 -50t-37 -126z" />
<glyph unicode="h" horiz-adv-x="964" d="M20 1291q97 27 171.5 41t94.5 14q32 0 32 -36v-639q227 83 317 83q110 0 163 -66q51 -63 51 -172v-8l-5 -481q0 -24 -24 -27q-65 -12 -130 -12q-24 0 -24 24l5 398v15q0 112 -38.5 165.5t-130.5 53.5q-72 0 -184 -49v-568q0 -24 -24 -27q-64 -12 -130 -12q-24 0 -24 24 v1142q0 52 -16.5 72t-56.5 20q-19 0 -41 -3z" />
<glyph unicode="i" horiz-adv-x="458" d="M32 693q65 18 128 32t96.5 19t44.5 5q32 0 32 -36v-686q0 -24 -24 -27q-69 -12 -130 -12q-24 0 -24 24v545q0 52 -16.5 72t-53.5 20q-27 0 -47 -4zM135 1060q0 101 113 101q45 0 68 -26.5t23 -74.5q0 -102 -111 -102q-45 0 -69 27t-24 75z" />
<glyph unicode="j" horiz-adv-x="458" d="M-85 -420q106 66 151 119t69 153q20 80 20 270v435q0 52 -16.5 72t-53.5 20q-27 0 -47 -4l-6 48q65 18 128 32t96.5 19t44.5 5q32 0 32 -36v-565q0 -223 -59 -353q-74 -162 -329 -270zM135 1060q0 101 113 101q45 0 68 -26.5t23 -74.5q0 -102 -111 -102q-45 0 -69 27 t-24 75z" />
<glyph unicode="k" horiz-adv-x="866" d="M20 1291q97 27 171.5 41t94.5 14q32 0 32 -36v-906l275 296q17 17 43 24q38 11 92.5 17.5t77.5 6.5q17 0 17 -16q0 -5 -8 -13l-334 -264l365 -428q5 -8 5 -13q0 -12 -14 -14q-69 -12 -157 -12q-23 0 -44 24l-318 373v-358q0 -24 -24 -27q-69 -12 -130 -12q-24 0 -24 24 v1142q0 52 -16.5 72t-56.5 20q-19 0 -41 -3z" />
<glyph unicode="l" horiz-adv-x="443" d="M20 1291q97 27 171.5 41t94.5 14q32 0 32 -36v-1283q0 -24 -24 -27q-69 -12 -130 -12q-24 0 -24 24v1142q0 52 -16.5 72t-56.5 20q-19 0 -41 -3z" />
<glyph unicode="m" horiz-adv-x="1480" d="M32 693q96 27 171 41.5t94 14.5q30 0 33 -36l3 -43q210 84 308 84q125 0 174 -94q207 94 334 94q110 0 164 -66q52 -63 52 -172v-8l-5 -481q0 -24 -24 -27q-64 -12 -130 -12q-24 0 -24 24l5 398v15q0 111 -38.5 164.5t-131.5 53.5q-23 0 -73 -12.5t-105 -38.5 q10 -34 10 -94l-5 -471q0 -24 -24 -27q-65 -12 -130 -12q-24 0 -24 24l5 398v15q0 111 -37.5 165t-124.5 54q-69 0 -176 -49v-568q0 -24 -24 -27q-64 -12 -130 -12q-24 0 -24 24v545q0 52 -16.5 72t-54.5 20q-26 0 -46 -4z" />
<glyph unicode="n" horiz-adv-x="979" d="M32 693q96 27 171 41.5t94 14.5q30 0 33 -36l3 -42q227 83 317 83q110 0 163 -66q51 -63 51 -172v-8l-5 -481q0 -24 -24 -27q-65 -12 -130 -12q-24 0 -24 24l5 398v15q0 112 -38.5 165.5t-130.5 53.5q-72 0 -184 -49v-568q0 -24 -24 -27q-64 -12 -130 -12q-24 0 -24 24 v545q0 52 -16.5 72t-54.5 20q-26 0 -46 -4z" />
<glyph unicode="o" horiz-adv-x="910" d="M65 360q0 176 114.5 285t294.5 109q164 0 267.5 -106t103.5 -266q0 -180 -114 -290.5t-297 -110.5q-163 0 -266 108.5t-103 270.5zM250 408q0 -59 12.5 -116t38 -108.5t72.5 -83.5t108 -32q52 0 89 23t55.5 62t26.5 81t8 91q0 58 -12 114.5t-37.5 109t-72 85t-108.5 32.5 q-51 0 -88 -23t-56 -62t-27.5 -81.5t-8.5 -91.5z" />
<glyph unicode="p" horiz-adv-x="984" d="M32 693q96 27 171 41.5t94 14.5q30 0 33 -36l3 -43q239 84 331 84q58 0 108.5 -32.5t82.5 -84t50.5 -113t18.5 -121.5q0 -102 -38 -183.5t-103 -133t-147 -78.5t-173 -27q-60 0 -130 14v-417q0 -24 -24 -28q-64 -12 -130 -12q-24 0 -24 25v994q0 52 -16.5 72t-54.5 20 q-26 0 -46 -4zM333 177q0 -52 49 -82t122 -30q243 0 243 250q0 80 -23 153.5t-73 125.5t-117 52q-74 0 -201 -51v-418z" />
<glyph unicode="q" horiz-adv-x="954" d="M60 331q0 130 62.5 227.5t166.5 146.5t234 49q74 0 159 -24q94 19 115 19q32 0 32 -36v-1135q0 -24 -24 -28q-64 -12 -130 -12q-24 0 -24 25v503q-224 -85 -309 -85q-63 0 -117.5 32.5t-89.5 84t-55 113t-20 120.5zM237 406q0 -53 12 -105.5t36.5 -101t69 -79 t102.5 -30.5q79 0 194 49v413q0 60 -51.5 88.5t-117.5 28.5q-124 0 -184.5 -71t-60.5 -192z" />
<glyph unicode="r" horiz-adv-x="706" d="M32 693q65 18 128 32t96.5 19t44.5 5q32 0 32 -36v-51q164 92 262 92q51 0 81 -33.5t30 -78.5q0 -48 -32 -81t-91 -33h-21q-8 0 -22 2v22q0 83 -66 83q-59 0 -141 -46v-562q0 -24 -24 -27q-69 -12 -130 -12q-24 0 -24 24v545q0 52 -16.5 72t-53.5 20q-27 0 -47 -4z" />
<glyph unicode="s" horiz-adv-x="706" d="M56 126q0 47 31.5 70t85.5 23q23 0 38 -3v-17q0 -137 136 -137q57 0 96.5 25t39.5 73q0 36 -27 64.5t-53.5 41t-84.5 34.5q-12 5 -18 7q-35 13 -55.5 21.5t-51.5 24t-49 31.5t-37 38t-27.5 49.5t-8.5 60.5q0 59 32 104t83 70t106 37t110 12q104 0 186 -26q8 -2 8 -8 q8 -74 8 -206l-49 -4q-11 36 -17.5 55.5t-20 43.5t-28.5 35.5t-40 20t-58 8.5q-60 0 -103 -23t-43 -72q0 -21 11 -39t24.5 -30t42.5 -26t47 -21t56 -21q50 -19 84 -35.5t71 -43t56 -63.5t19 -83q0 -60 -32 -107t-84.5 -74.5t-111.5 -41t-120 -13.5q-54 0 -108 12.5t-99 47 t-45 85.5z" />
<glyph unicode="t" horiz-adv-x="614" d="M20 707q19 2 60 4.5t58 3.5v154q0 22 4 31t18 14q105 39 134 39q22 0 22 -25v-204q133 6 211 6q21 0 21 -21v-2l-4 -62l-228 -1v-425q0 -64 35 -96t95 -32q61 0 139 30l21 -61q-74 -33 -152 -56t-112 -23q-92 0 -148 57t-56 160v445l-115 -3z" />
<glyph unicode="u" horiz-adv-x="983" d="M35 693q65 18 128 32t96.5 19t44.5 5q32 0 32 -36l-5 -389v-15q0 -111 38.5 -164.5t129.5 -53.5q71 0 181 48v418q0 52 -16.5 72t-53.5 20q-27 0 -47 -4l-6 48q65 18 128 32t96.5 19t44.5 5q32 0 32 -36v-571q0 -30 15 -117l1 -6q0 -17 -20 -19q-68 -12 -129 -12 q-19 0 -25 23l-15 56q-224 -86 -318 -86q-108 -1 -162 65q-52 63 -52 172v8l5 331v6q0 47 -16 66q-17 20 -54 20q-27 0 -47 -4z" />
<glyph unicode="v" horiz-adv-x="823" d="M-23 693q73 22 154.5 38.5t98.5 16.5q14 0 21 -8t15 -28l193 -498h4l187 487q10 24 33 30q66 17 109 17q18 0 18 -12q0 -5 -5 -17l-340 -712q-8 -16 -17 -17q-25 -5 -57 -5q-14 0 -21 15l-249 570q-19 45 -41 62t-54 17q-22 0 -43 -4z" />
<glyph unicode="w" horiz-adv-x="1288" d="M-20 693q73 22 154.5 38.5t98.5 16.5q14 0 21.5 -8.5t14.5 -27.5l178 -498h4l183 488q4 10 8.5 15.5t7.5 6.5t10 3q32 5 63 5q16 0 23 -20l185 -498h4l172 487q7 23 33 30q66 17 109 17q18 0 18 -12q0 -7 -5 -17l-323 -712q-8 -15 -17 -17q-25 -5 -59 -5q-15 0 -21 15 l-191 504l-195 -497q-6 -15 -17 -17q-22 -5 -60 -5q-15 0 -21 15l-232 571q-18 44 -41 61t-56 17q-23 0 -43 -4z" />
<glyph unicode="x" horiz-adv-x="788" d="M5 697q74 22 146 36.5t90 14.5q15 0 24 -5t19 -20l157 -229l152 206q18 24 37 29q66 19 119 19q19 0 19 -14q0 -8 -7 -15l-262 -309l257 -375q5 -8 5 -15q0 -15 -20 -18q-6 -1 -19.5 -2t-20.5 -2l-45 -5q-48 -5 -67 -5q-15 0 -24 12l-194 281l-179 -245q-18 -24 -37 -29 q-72 -19 -125 -19q-19 0 -19 13q0 8 7 15l296 346l-151 220q-27 39 -52 55t-56 16q-23 0 -44 -4z" />
<glyph unicode="y" horiz-adv-x="817" d="M-23 693q73 22 154.5 38.5t98.5 16.5q14 0 21 -8t15 -28l193 -498h4l187 487q10 24 33 30q66 17 109 17q18 0 18 -12q0 -5 -5 -17q-277 -547 -412 -878q-12 -31 -17.5 -43.5t-19.5 -43.5t-23 -47t-26 -43.5t-31 -42.5t-34.5 -34.5t-41 -29.5t-46.5 -17t-54 -7 q-50 0 -81.5 29.5t-31.5 71.5q0 38 23 65q44 -24 88 -24q61 0 112.5 43.5t101.5 154.5l58 127l-249 570q-19 45 -41 62t-54 17q-22 0 -43 -4z" />
<glyph unicode="z" horiz-adv-x="818" d="M55 55q0 3 3 8l451 595h-233q-32 0 -55.5 -7.5t-37.5 -17.5t-26.5 -33.5t-18.5 -41.5t-17 -55l-49 4q0 88 14 220q2 8 10 8q176 -2 185 -2h261q8 0 182 2q6 0 9 -5q10 -30 10 -46q0 2 -1 -1q0 -2 -1 -6l-459 -602h255q41 0 68.5 11t45.5 36.5t28 50t23 70.5l49 -4 q0 -99 -14 -233q-1 -7 -10 -7q-89 1 -190 1h-275q-100 0 -189 -1q-6 0 -8 6q-10 32 -10 50z" />
<glyph unicode="{" horiz-adv-x="643" d="M120 350v164h137q-10 314 -100 691q219 25 282 183h17q12 -33 12 -76q0 -92 -60 -158t-170 -78q85 -338 85 -644q0 -316 -85 -653q110 -12 170 -78t60 -158q0 -43 -12 -76h-17q-25 50 -59 85.5t-73 55t-73.5 28.5t-76.5 14q89 374 100 700h-137z" />
<glyph unicode="|" horiz-adv-x="188" d="M50 -484v1818l88 7v-1818z" />
<glyph unicode="}" horiz-adv-x="623" d="M175 -457q0 92 60 158t170 78q-85 337 -85 653q0 306 85 644q-110 12 -170 78t-60 158q0 43 12 76h17q63 -158 282 -183q-90 -377 -100 -691h137v-164h-137q11 -333 100 -700q-41 -5 -75.5 -14t-74.5 -28.5t-74 -55t-58 -85.5h-17q-12 33 -12 76z" />
<glyph unicode="~" d="M40 413q82 71 172 71q67 0 190.5 -51.5t190.5 -51.5q83 0 164 65l6 -2l-7 -74q-75 -69 -175 -69q-64 0 -186 52.5t-186 52.5q-75 0 -157 -70h-7z" />
<glyph unicode="&#xa1;" horiz-adv-x="468" d="M101 -428l77 812q1 18 17 19l46 3q11 1 14.5 -2.5t4.5 -14.5l39 -802v-3q0 -20 -24 -25q-72 -12 -150 -12q-24 0 -24 20v5zM115 648q0 106 117 106q45 0 70.5 -28.5t25.5 -77.5q0 -107 -117 -107q-96 0 -96 107z" />
<glyph unicode="&#xa2;" horiz-adv-x="796" d="M80 432q0 148 91 247t237 130v181l77 9l-1 -180q32 2 47 2q90 0 153 -31.5t63 -102.5q0 -48 -33.5 -71t-88.5 -23h-16q-2 0 -16 2v18q0 59 -21.5 89t-87.5 36l-2 -527q27 -4 66 -4q91 0 198 35l20 -51q-143 -63 -285 -86v-172l-70 -15l-1 179h-2q-145 0 -236.5 96 t-91.5 239zM247 498q0 -211 163 -269l-2 504q-78 -17 -119.5 -81t-41.5 -154z" />
<glyph unicode="&#xa3;" horiz-adv-x="943" d="M62 65q88 28 123.5 82t35.5 135q0 45 -14 151l-115 -3l-3 67q17 2 54 4t54 3q-6 50 -6 101q0 181 105.5 289.5t293.5 108.5q35 0 70.5 -6.5t70 -21t56 -43t21.5 -66.5q0 -52 -32.5 -76.5t-86.5 -24.5h-14q-1 0 -3 0.5t-5 1t-6 0.5v31q0 127 -114 127q-107 0 -145 -54 t-38 -158q0 -34 6.5 -104t7.5 -95q174 6 239 6q22 0 21 -23l-4 -62l-254 -1q-6 -175 -114 -288h362q83 0 110 26.5t54 122.5l46 -4q0 -38 -21 -285q-1 -7 -10 -7q-89 1 -190 1h-137h-406z" />
<glyph unicode="&#xa4;" horiz-adv-x="931" d="M70 778l58 66l111 -111q97 78 226 78q126 0 222 -74l106 107l68 -59l-112 -111q75 -94 75 -217q0 -126 -83 -228l118 -116l-72 -46l-107 106q-95 -68 -215 -68q-127 0 -222 73l-117 -118l-55 60l115 113q-80 96 -80 224q0 119 71 214zM211 456q0 -110 72 -187.5 t182 -77.5q113 0 184.5 77t71.5 188q0 112 -71.5 190t-184.5 78q-110 0 -182 -78.5t-72 -189.5z" />
<glyph unicode="&#xa5;" horiz-adv-x="958" d="M6 967q72 16 144.5 25t92.5 9t40 -34l249 -422l205 405q13 24 31 29q40 12 110 12q18 0 18 -13q0 -6 -5 -14l-301 -474h231l-15 -72l-238 -2v-112h253l-15 -72l-238 -2v-205q0 -22 -23 -25q-74 -12 -132 -12q-23 0 -23 23v218l-240 -1l-5 76h245v111l-240 -1l-5 76h217 l-214 354q-26 43 -47 59.5t-50 16.5q-27 0 -39 -4z" />
<glyph unicode="&#xa6;" horiz-adv-x="528" d="M220 -29v519l88 7v-519zM220 660v520l88 7v-520z" />
<glyph unicode="&#xa7;" horiz-adv-x="932" d="M60 484q0 76 42.5 133t112.5 91q-112 77 -112 211q0 72 29.5 125.5t79 83.5t106.5 44t121 14q44 0 86.5 -6t90 -21t76.5 -48t29 -79q0 -41 -34 -64t-79 -23q-30 0 -42 4v28q0 67 -42.5 103t-105.5 36q-73 0 -126 -39t-53 -113q0 -45 17.5 -79t61 -61t72 -39.5t94.5 -36.5 q3 -1 4.5 -2t4 -1.5t4.5 -1.5q53 -19 84.5 -32.5t75 -38t67 -50.5t41 -66t17.5 -88q0 -153 -145 -236q99 -73 99 -196q0 -77 -31.5 -135t-84.5 -91.5t-116 -49.5t-134 -16q-42 0 -84.5 7t-91 24t-78.5 54t-30 90q0 43 33 66.5t81 23.5q21 0 42 -3v-29q0 -78 43 -120t120 -42 q83 0 137.5 49t54.5 130q0 29 -8.5 52.5t-29 43.5t-37.5 33t-53.5 29t-56 23t-63.5 23t-71 27t-65 29.5t-61.5 39t-46.5 48t-34 63.5t-11 79zM194 553q0 -74 45 -119.5t128 -79.5q19 -8 97 -37.5t117 -49.5q69 52 69 136q0 67 -42.5 109t-122.5 76q-18 7 -97.5 38t-119.5 51 q-74 -41 -74 -124z" />
<glyph unicode="&#xa8;" horiz-adv-x="500" d="M-11 1057q0 97 108 97q42 0 65 -25.5t23 -71.5q0 -99 -107 -99q-42 0 -65.5 26.5t-23.5 72.5zM315 1057q0 97 109 97q42 0 65 -25.5t23 -71.5q0 -99 -107 -99q-42 0 -66 27t-24 72z" />
<glyph unicode="&#xa9;" horiz-adv-x="1439" d="M100 586q0 267 178 439q179 173 445 173q265 0 440 -174q176 -174 176 -442q0 -255 -176 -428q-174 -171 -443 -171q-270 0 -444 171q-176 173 -176 432zM186 590q0 -237 149 -389q148 -151 388 -151q235 0 383 150q148 151 148 390t-150 389q-150 151 -383 151 q-239 0 -387 -153q-148 -151 -148 -387zM365 598q0 160 112 249t290 89q82 0 179 -26q15 -6 16 -18l3 -44l3 -58q3 -58 3 -81l-38 -4q-6 87 -57.5 129t-119.5 42q-116 0 -176.5 -69t-60.5 -182q0 -132 76.5 -214.5t219.5 -82.5q76 0 169 48l21 -48q-57 -39 -133.5 -58.5 t-128.5 -19.5q-168 0 -273 98t-105 250z" />
<glyph unicode="&#xaa;" horiz-adv-x="645" d="M40 761q0 80 58 122q44 33 116.5 45t189.5 16l1 24q3 69 -23 103t-91 34q-74 0 -190 -35l-17 51q79 31 154 49.5t115 18.5q114 0 159.5 -50.5t43.5 -168.5l-4 -244q-1 -32 12 -82q1 -1 1 -6q0 -11 -17 -14q-50 -9 -108 -9q-15 0 -21 18l-11 36q-145 -59 -209 -59 q-75 0 -117 47.5t-42 103.5zM190 788q0 -36 24 -63t81 -27q42 0 106 30l2 159q-119 -7 -151 -17q-27 -9 -42 -24q-20 -27 -20 -58z" />
<glyph unicode="&#xab;" horiz-adv-x="712" d="M90 213v318q76 10 131.5 51t88.5 141h16q11 -46 11 -81q0 -95 -57.5 -167t-160.5 -83v-40q104 -14 161 -83.5t57 -166.5q0 -35 -11 -81h-16q-38 101 -93 141.5t-127 50.5zM385 213v318q76 10 131.5 51t88.5 141h16q11 -46 11 -81q0 -95 -57.5 -167t-160.5 -83v-40 q104 -14 161 -83.5t57 -166.5q0 -35 -11 -81h-16q-38 101 -93 141.5t-127 50.5z" />
<glyph unicode="&#xac;" d="M40 429h725l-3 -400l-71 10l-2 317l-644 -3z" />
<glyph unicode="&#xad;" horiz-adv-x="605" d="M46 441h513l-5 -92l-503 -4z" />
<glyph unicode="&#xae;" horiz-adv-x="850" d="M80 854q0 156 101 251q102 95 256 95q158 0 256 -92q97 -91 97 -251q0 -162 -99 -258q-98 -95 -260 -95q-159 0 -255 95t-96 255zM150 855q0 -140 78 -221t206 -81q132 0 208.5 78.5t76.5 223.5q0 137 -79 216q-80 80 -208 80q-125 0 -204 -79q-78 -80 -78 -217z M240 1024q100 18 192 18q154 0 154 -85q0 -72 -90 -98v-3q33 -10 46.5 -28t26.5 -61q13 -42 23.5 -53t36.5 -11l1 -25q-40 -7 -70 -7t-45.5 15.5t-25.5 57.5q-7 31 -11 43.5t-13.5 28.5t-24.5 20.5t-38 2.5l-3 26q54 2 74.5 18t20.5 58q0 65 -78 65q-18 0 -25 -3t-7 -14 v-296q0 -12 -11 -14q-35 -5 -64 -5q-10 0 -10 11v276q0 22 -9 30.5t-28 8.5h-10q-8 0 -9 -1z" />
<glyph unicode="&#xaf;" horiz-adv-x="500" d="M-5 1037h512l-5 -82l-502 -4z" />
<glyph unicode="&#xb0;" horiz-adv-x="570" d="M50 780q0 92 65 156.5t160 64.5t160 -64.5t65 -156.5t-65 -156.5t-160 -64.5t-160 64.5t-65 156.5zM124 779q0 -65 42.5 -111t108.5 -46t108.5 46t42.5 111t-42.5 112t-108.5 47t-108.5 -47t-42.5 -112z" />
<glyph unicode="&#xb1;" d="M40 99h725l-15 -72l-705 -4zM40 499h323l-1 250l78 5l-2 -255h327l-15 -72l-312 -2l-2 -256l-71 10l-1 246l-319 -2z" />
<glyph unicode="&#xb2;" horiz-adv-x="663" d="M46 502q174 80 255 165t81 160q0 48 -26.5 78t-80.5 30q-61 0 -100.5 -44.5t-50.5 -128.5l-42 4q0 101 9 180q1 13 17 18q112 36 198 36q118 0 176.5 -35.5t58.5 -95.5q0 -81 -86 -171t-269 -177h209q36 0 55.5 4t34 20.5t22 36t19.5 63.5l37 -4q0 -23 -5.5 -113 t-9.5 -116q-2 -6 -8 -6q-40 0 -90 0.5t-64 0.5h-329z" />
<glyph unicode="&#xb3;" horiz-adv-x="634" d="M28 532q0 36 26.5 55.5t65.5 19.5q27 0 36 -4q-2 -14 -2 -22q0 -60 35 -92t99 -32q65 0 103 30t38 79q0 64 -55 89.5t-154 25.5h-15l-7 53h11q191 0 191 105q0 47 -35 72.5t-94 25.5q-62 0 -100 -34.5t-49 -116.5l-41 4q0 91 8 163q2 12 17 17q96 30 195 30 q255 0 255 -131q0 -109 -152 -139v-3q26 -2 54 -11t59.5 -25.5t51.5 -47.5t20 -70q0 -59 -46.5 -102t-113.5 -62t-145 -19q-102 0 -179 36.5t-77 105.5z" />
<glyph unicode="&#xb4;" horiz-adv-x="500" d="M203 834l77 318q6 24 31 28q54 10 130 10q17 0 17 -14q0 -5 -4 -12l-190 -338h-54z" />
<glyph unicode="&#xb5;" horiz-adv-x="947" d="M117 -457v1159q0 24 24 28q64 12 130 12q24 0 24 -25v-433q0 -95 40.5 -150t121.5 -55q100 0 187 60v563q0 24 24 28q64 12 130 12q24 0 24 -25v-575q0 -51 15 -117q1 -1 1 -8q0 -15 -20 -17q-82 -12 -129 -12q-19 0 -25 23l-15 56q-112 -86 -252 -86q-74 0 -138 29 l34 -452v-3q0 -21 -22 -25q-64 -12 -130 -12q-24 0 -24 25z" />
<glyph unicode="&#xb6;" horiz-adv-x="1031" d="M50 836q0 80 30.5 141.5t79 99t117.5 61.5t138 33t148 9q158 0 328 -29l-6 -55q-42 7 -101 7v-1314l-88 -12v1330q-49 4 -92 2v-1344l-88 -12v730q-74 0 -140.5 12t-127 39t-104 67t-69 100t-25.5 135z" />
<glyph unicode="&#xb7;" horiz-adv-x="419" d="M100 392q0 110 121 110q47 0 72.5 -29t25.5 -81q0 -108 -120 -108q-48 0 -73.5 28.5t-25.5 79.5z" />
<glyph unicode="&#xb8;" horiz-adv-x="500" d="M93 -361q88 14 117 30q41 23 41 68q0 35 -30 54.5t-68 19.5h-6q-8 0 -9 -1l-19 43l113 147h72l-65 -108q67 -8 104.5 -47.5t37.5 -92.5q0 -49 -25 -84.5t-66 -54t-85 -27t-91 -8.5h-13z" />
<glyph unicode="&#xb9;" horiz-adv-x="403" d="M52 960q163 26 226 26q25 0 25 -29v-527q0 -18 -19 -22q-50 -10 -102 -10q-19 0 -19 20v421q0 50 -11 67t-46 17q-19 0 -49 -3z" />
<glyph unicode="&#xba;" horiz-adv-x="728" d="M52 894q0 132 91 213.5t236 81.5q132 0 214.5 -79.5t82.5 -199.5q0 -135 -91 -218t-238 -83q-130 0 -212.5 81.5t-82.5 203.5zM206 930q0 -60 15.5 -113.5t57 -94.5t103.5 -41q41 0 70 16.5t43.5 45t20.5 59t6 65.5q0 58 -15 111.5t-56.5 96t-103.5 42.5q-40 0 -69 -16.5 t-44 -45t-21.5 -59.5t-6.5 -66z" />
<glyph unicode="&#xbb;" horiz-adv-x="712" d="M80 102q0 95 57.5 167t160.5 83v40q-104 14 -161 83.5t-57 166.5q0 35 11 81h16q20 -54 45.5 -91t55.5 -57t57.5 -29.5t61.5 -14.5v-318q-76 -10 -131.5 -51t-88.5 -141h-16q-11 46 -11 81zM375 102q0 95 57.5 167t160.5 83v40q-104 14 -161 83.5t-57 166.5q0 35 11 81 h16q20 -54 45.5 -91t55.5 -57t57.5 -29.5t61.5 -14.5v-318q-76 -10 -131.5 -51t-88.5 -141h-16q-11 46 -11 81z" />
<glyph unicode="&#xbc;" horiz-adv-x="1140" d="M52 960q163 26 226 26q25 0 25 -29v-527q0 -18 -19 -22q-50 -10 -102 -10q-19 0 -19 20v421q0 50 -11 67t-46 17q-19 0 -49 -3z" />
<glyph unicode="&#xbd;" horiz-adv-x="1273" d="M52 960q163 26 226 26q25 0 25 -29v-527q0 -18 -19 -22q-50 -10 -102 -10q-19 0 -19 20v421q0 50 -11 67t-46 17q-19 0 -49 -3zM649 98q174 80 255 165t81 160q0 48 -26.5 78t-80.5 30q-61 0 -100.5 -44.5t-50.5 -128.5l-42 4q0 101 9 180q1 13 17 18q112 36 198 36 q118 0 176.5 -35.5t58.5 -95.5q0 -81 -86 -171t-269 -177h209q36 0 55.5 4t34 20.5t22 36t19.5 63.5l37 -4q0 -23 -5.5 -113t-9.5 -116q-1 -6 -8 -6q-40 0 -90 0.5t-64 0.5h-329z" />
<glyph unicode="&#xbe;" horiz-adv-x="1371" d="M28 532q0 36 26.5 55.5t65.5 19.5q27 0 36 -4q-2 -14 -2 -22q0 -60 35 -92t99 -32q65 0 103 30t38 79q0 64 -55 89.5t-154 25.5h-15l-7 53h11q191 0 191 105q0 47 -35 72.5t-94 25.5q-62 0 -100 -34.5t-49 -116.5l-41 4q0 91 8 163q2 12 17 17q96 30 195 30 q255 0 255 -131q0 -109 -152 -139v-3q26 -2 54 -11t59.5 -25.5t51.5 -47.5t20 -70q0 -59 -46.5 -102t-113.5 -62t-145 -19q-102 0 -179 36.5t-77 105.5z" />
<glyph unicode="&#xbf;" horiz-adv-x="742" d="M70 -180q0 44 13 80t41.5 67.5t53 52t68.5 51.5q7 5 32.5 22.5t34 23.5t27.5 21.5t26.5 25.5t18.5 25t14.5 30.5t3.5 33.5q0 54 -56 134q50 34 89 34q55 0 87 -36t32 -90q0 -41 -16 -78t-50 -71t-61.5 -56t-75.5 -55q-45 -31 -69 -48.5t-54 -45t-43 -54t-13 -55.5 q0 -70 61 -104t153 -34q126 0 210 54q34 -55 34 -97q0 -57 -55.5 -84.5t-136.5 -27.5q-95 0 -177 30t-137 96t-55 155zM339 648q0 106 117 106q45 0 70.5 -28.5t25.5 -77.5q0 -107 -117 -107q-96 0 -96 107z" />
<glyph unicode="&#xc0;" horiz-adv-x="1170" d="M15 -2q0 3 1 4l458 1098l-21 58q-2 10 -2 11q0 15 19 18q77 14 141 14q20 0 29 -23l446 -1148q3 -8 3 -11q0 -17 -20 -19q-72 -12 -150 -12q-17 0 -23 14l-163 424l-437 -7l-154 -415q-5 -11 -18 -12q-32 -4 -93 -4q-16 0 -16 10zM328 504h375l-190 496z" />
<glyph unicode="&#xc1;" horiz-adv-x="1170" d="M15 -2q0 3 1 4l458 1098l-21 58q-2 10 -2 11q0 15 19 18q77 14 141 14q20 0 29 -23l446 -1148q3 -8 3 -11q0 -17 -20 -19q-72 -12 -150 -12q-17 0 -23 14l-163 424l-437 -7l-154 -415q-5 -11 -18 -12q-32 -4 -93 -4q-16 0 -16 10zM328 504h375l-190 496z" />
<glyph unicode="&#xc2;" horiz-adv-x="1170" d="M15 -2q0 3 1 4l458 1098l-21 58q-2 10 -2 11q0 15 19 18q77 14 141 14q20 0 29 -23l446 -1148q3 -8 3 -11q0 -17 -20 -19q-72 -12 -150 -12q-17 0 -23 14l-163 424l-437 -7l-154 -415q-5 -11 -18 -12q-32 -4 -93 -4q-16 0 -16 10zM328 504h375l-190 496z" />
<glyph unicode="&#xc3;" horiz-adv-x="1170" d="M15 -2q0 3 1 4l458 1098l-21 58q-2 10 -2 11q0 15 19 18q77 14 141 14q20 0 29 -23l446 -1148q3 -8 3 -11q0 -17 -20 -19q-72 -12 -150 -12q-17 0 -23 14l-163 424l-437 -7l-154 -415q-5 -11 -18 -12q-32 -4 -93 -4q-16 0 -16 10zM328 504h375l-190 496z" />
<glyph unicode="&#xc4;" horiz-adv-x="1170" d="M15 -2q0 3 1 4l458 1098l-21 58q-2 10 -2 11q0 15 19 18q77 14 141 14q20 0 29 -23l446 -1148q3 -8 3 -11q0 -17 -20 -19q-72 -12 -150 -12q-17 0 -23 14l-163 424l-437 -7l-154 -415q-5 -11 -18 -12q-32 -4 -93 -4q-16 0 -16 10zM328 504h375l-190 496z" />
<glyph unicode="&#xc5;" horiz-adv-x="1170" d="M15 -2q0 3 1 4l458 1098l-21 58q-2 10 -2 11q0 15 19 18q77 14 141 14q20 0 29 -23l446 -1148q3 -8 3 -11q0 -17 -20 -19q-72 -12 -150 -12q-17 0 -23 14l-163 424l-437 -7l-154 -415q-5 -11 -18 -12q-32 -4 -93 -4q-16 0 -16 10zM328 504h375l-190 496z" />
<glyph unicode="&#xc6;" horiz-adv-x="1529" d="M-24 -5q0 4 3 7l735 1049q-19 19 -60 19q-7 0 -14 -0.5t-15.5 -1.5t-13.5 -1l-6 55q52 10 151 23t141 13h344q33 0 153 2q16 0 18 -15q12 -165 12 -256l-50 -5q-9 37 -16.5 62.5t-18.5 47t-19 34.5t-25 23t-29.5 14.5t-39.5 7t-47 3t-60 0.5h-156q-32 0 -37.5 -5.5 t-5.5 -32.5v-447q346 10 368 10v-1h1q28 0 28 -30q0 -28 -7 -82q-242 16 -390 16v-349q0 -49 10 -59.5t63 -10.5h109h59t48.5 1.5t42.5 4t34.5 8t31 13t25.5 19.5t24.5 26t22 35.5t24 45t24.5 56.5l50 -11q0 -19 -16.5 -109t-33.5 -143q-11 -33 -49 -33q-200 2 -465 2h-166 q-24 0 -24 25v478q-189 -3 -293 -6l-317 -493q-9 -11 -22 -12q-31 -4 -112 -4q-14 0 -14 7zM496 581q17 0 59 0.5t87.5 1.5t91.5 2v364z" />
<glyph unicode="&#xc7;" horiz-adv-x="1181" d="M82 588q0 189 88.5 326.5t239 206t344.5 68.5q132 0 299 -36q19 -5 21 -22q12 -165 12 -243l-50 -5q-6 59 -36 104t-76.5 70.5t-98.5 38t-109 12.5q-210 0 -320 -131t-110 -343q0 -120 33 -221.5t96.5 -177.5t163 -118.5t226.5 -42.5q137 0 299 63l27 -62 q-93 -52 -220 -77.5t-210 -25.5h-4l-48 -80q67 -8 104.5 -47.5t37.5 -92.5q0 -49 -25 -84.5t-66 -54t-85 -27t-91 -8.5h-13l-8 61q88 14 117 30q41 23 41 68q0 35 -30 54.5t-68 19.5q-8 0 -15 -1l-19 43l92 124q-242 25 -390.5 194t-148.5 417z" />
<glyph unicode="&#xc8;" horiz-adv-x="975" d="M31 1122q52 10 151 23t141 13h364q33 0 153 2q16 0 18 -15q12 -165 12 -256l-50 -5q-9 37 -16.5 62.5t-18.5 47t-19 34.5t-25 23t-29.5 14.5t-39.5 7t-47 3t-60 0.5h-176q-32 0 -37.5 -5.5t-5.5 -32.5v-405q378 19 389 19q28 0 28 -30q0 -28 -7 -82l-410 14v-399 q0 -49 10 -59.5t63 -10.5h129h59t48.5 1.5t42.5 4t34.5 8t31 13t25.5 19.5t24.5 26t22 35.5t24 45t24.5 56.5l50 -11q0 -19 -16.5 -109t-33.5 -143q-11 -33 -49 -33q-35 0 -201.5 1t-283.5 1h-166q-24 0 -24 25v961q0 47 -21 65.5t-59 18.5q-20 0 -43 -3z" />
<glyph unicode="&#xc9;" horiz-adv-x="975" d="M31 1122q52 10 151 23t141 13h364q33 0 153 2q16 0 18 -15q12 -165 12 -256l-50 -5q-9 37 -16.5 62.5t-18.5 47t-19 34.5t-25 23t-29.5 14.5t-39.5 7t-47 3t-60 0.5h-176q-32 0 -37.5 -5.5t-5.5 -32.5v-405q378 19 389 19q28 0 28 -30q0 -28 -7 -82l-410 14v-399 q0 -49 10 -59.5t63 -10.5h129h59t48.5 1.5t42.5 4t34.5 8t31 13t25.5 19.5t24.5 26t22 35.5t24 45t24.5 56.5l50 -11q0 -19 -16.5 -109t-33.5 -143q-11 -33 -49 -33q-35 0 -201.5 1t-283.5 1h-166q-24 0 -24 25v961q0 47 -21 65.5t-59 18.5q-20 0 -43 -3z" />
<glyph unicode="&#xca;" horiz-adv-x="975" d="M31 1122q52 10 151 23t141 13h364q33 0 153 2q16 0 18 -15q12 -165 12 -256l-50 -5q-9 37 -16.5 62.5t-18.5 47t-19 34.5t-25 23t-29.5 14.5t-39.5 7t-47 3t-60 0.5h-176q-32 0 -37.5 -5.5t-5.5 -32.5v-405q378 19 389 19q28 0 28 -30q0 -28 -7 -82l-410 14v-399 q0 -49 10 -59.5t63 -10.5h129h59t48.5 1.5t42.5 4t34.5 8t31 13t25.5 19.5t24.5 26t22 35.5t24 45t24.5 56.5l50 -11q0 -19 -16.5 -109t-33.5 -143q-11 -33 -49 -33q-35 0 -201.5 1t-283.5 1h-166q-24 0 -24 25v961q0 47 -21 65.5t-59 18.5q-20 0 -43 -3z" />
<glyph unicode="&#xcb;" horiz-adv-x="975" d="M31 1122q52 10 151 23t141 13h364q33 0 153 2q16 0 18 -15q12 -165 12 -256l-50 -5q-9 37 -16.5 62.5t-18.5 47t-19 34.5t-25 23t-29.5 14.5t-39.5 7t-47 3t-60 0.5h-176q-32 0 -37.5 -5.5t-5.5 -32.5v-405q378 19 389 19q28 0 28 -30q0 -28 -7 -82l-410 14v-399 q0 -49 10 -59.5t63 -10.5h129h59t48.5 1.5t42.5 4t34.5 8t31 13t25.5 19.5t24.5 26t22 35.5t24 45t24.5 56.5l50 -11q0 -19 -16.5 -109t-33.5 -143q-11 -33 -49 -33q-35 0 -201.5 1t-283.5 1h-166q-24 0 -24 25v961q0 47 -21 65.5t-59 18.5q-20 0 -43 -3z" />
<glyph unicode="&#xcc;" horiz-adv-x="506" d="M31 1145q193 36 283 36q32 0 32 -32v-1122q0 -24 -24 -27q-68 -12 -138 -12q-24 0 -24 24v990q0 52 -20 71.5t-59 19.5q-21 0 -44 -3z" />
<glyph unicode="&#xcd;" horiz-adv-x="506" d="M31 1145q193 36 283 36q32 0 32 -32v-1122q0 -24 -24 -27q-68 -12 -138 -12q-24 0 -24 24v990q0 52 -20 71.5t-59 19.5q-21 0 -44 -3z" />
<glyph unicode="&#xce;" horiz-adv-x="506" d="M31 1145q193 36 283 36q32 0 32 -32v-1122q0 -24 -24 -27q-68 -12 -138 -12q-24 0 -24 24v990q0 52 -20 71.5t-59 19.5q-21 0 -44 -3z" />
<glyph unicode="&#xcf;" horiz-adv-x="506" d="M31 1145q193 36 283 36q32 0 32 -32v-1122q0 -24 -24 -27q-68 -12 -138 -12q-24 0 -24 24v990q0 52 -20 71.5t-59 19.5q-21 0 -44 -3z" />
<glyph unicode="&#xd0;" horiz-adv-x="1295" d="M31 1147q250 42 456 42q725 0 725 -576q0 -148 -53.5 -268t-149 -199t-227 -121.5t-286.5 -42.5q-57 0 -148 9t-164 9q-24 0 -24 25v547l-113 -1l-5 86h118v355q0 48 -20 66t-59 18q-20 0 -44 -3zM346 80q68 -16 158 -16q239 0 371 140t132 384q0 234 -137 375.5 t-379 141.5h-51q-51 0 -72.5 -8.5t-21.5 -39.5v-400h329l-5 -82l-324 -2v-493z" />
<glyph unicode="&#xd1;" horiz-adv-x="1220" d="M69 1166q0 15 18 18q65 14 167 14q15 0 31 -23l691 -917l-25 897q0 10 16 13q72 9 106 9q16 0 16 -15l-24 -975v-183q0 -11 -16 -12q-32 -4 -86 -4q-12 0 -24 14l-696 924l25 -920q0 -9 -16 -12q-56 -7 -106 -7q-16 0 -16 14l25 1042l-82 112q-4 4 -4 11z" />
<glyph unicode="&#xd2;" horiz-adv-x="1350" d="M80 570q0 298 168 458.5t458 160.5q260 0 412 -156.5t152 -433.5q0 -299 -168.5 -463t-457.5 -164q-260 0 -412 160t-152 438zM287 623q0 -87 14 -167t45.5 -154t78 -128t116.5 -86.5t155 -32.5q94 0 167 41t116 111t64.5 156t21.5 183q0 109 -23.5 206t-70.5 177.5 t-128 128t-187 47.5q-95 0 -167.5 -39.5t-115.5 -108t-64.5 -153t-21.5 -181.5z" />
<glyph unicode="&#xd3;" horiz-adv-x="1350" d="M80 570q0 298 168 458.5t458 160.5q260 0 412 -156.5t152 -433.5q0 -299 -168.5 -463t-457.5 -164q-260 0 -412 160t-152 438zM287 623q0 -87 14 -167t45.5 -154t78 -128t116.5 -86.5t155 -32.5q94 0 167 41t116 111t64.5 156t21.5 183q0 109 -23.5 206t-70.5 177.5 t-128 128t-187 47.5q-95 0 -167.5 -39.5t-115.5 -108t-64.5 -153t-21.5 -181.5z" />
<glyph unicode="&#xd4;" horiz-adv-x="1350" d="M80 570q0 298 168 458.5t458 160.5q260 0 412 -156.5t152 -433.5q0 -299 -168.5 -463t-457.5 -164q-260 0 -412 160t-152 438zM287 623q0 -87 14 -167t45.5 -154t78 -128t116.5 -86.5t155 -32.5q94 0 167 41t116 111t64.5 156t21.5 183q0 109 -23.5 206t-70.5 177.5 t-128 128t-187 47.5q-95 0 -167.5 -39.5t-115.5 -108t-64.5 -153t-21.5 -181.5z" />
<glyph unicode="&#xd5;" horiz-adv-x="1350" d="M80 570q0 298 168 458.5t458 160.5q260 0 412 -156.5t152 -433.5q0 -299 -168.5 -463t-457.5 -164q-260 0 -412 160t-152 438zM287 623q0 -87 14 -167t45.5 -154t78 -128t116.5 -86.5t155 -32.5q94 0 167 41t116 111t64.5 156t21.5 183q0 109 -23.5 206t-70.5 177.5 t-128 128t-187 47.5q-95 0 -167.5 -39.5t-115.5 -108t-64.5 -153t-21.5 -181.5z" />
<glyph unicode="&#xd6;" horiz-adv-x="1350" d="M80 570q0 298 168 458.5t458 160.5q260 0 412 -156.5t152 -433.5q0 -299 -168.5 -463t-457.5 -164q-260 0 -412 160t-152 438zM287 623q0 -87 14 -167t45.5 -154t78 -128t116.5 -86.5t155 -32.5q94 0 167 41t116 111t64.5 156t21.5 183q0 109 -23.5 206t-70.5 177.5 t-128 128t-187 47.5q-95 0 -167.5 -39.5t-115.5 -108t-64.5 -153t-21.5 -181.5z" />
<glyph unicode="&#xd7;" d="M60 677l50 57l289 -289l287 289l59 -51l-295 -290l293 -292l-62 -40l-283 280l-291 -285l-41 54l280 282z" />
<glyph unicode="&#xd8;" horiz-adv-x="1350" d="M80 570q0 298 168 458.5t458 160.5q206 0 346 -101l84 99l70 -41l-93 -109q157 -159 157 -438q0 -299 -168.5 -463t-457.5 -164q-208 0 -346 101l-84 -98l-70 40l94 111q-158 163 -158 444zM284 623q0 -204 75 -354l589 696q-110 142 -292 142q-94 0 -167.5 -40 t-117 -108.5t-65.5 -153.5t-22 -182zM403 198q112 -145 293 -145q94 0 167 41t116.5 111.5t65 156.5t21.5 184q0 203 -74 348z" />
<glyph unicode="&#xd9;" horiz-adv-x="1225" d="M21 1145q193 36 283 36q32 0 32 -32v-784q0 -142 71 -205t192 -63q116 0 280 80v954q0 23 24 28q63 12 138 12q24 0 24 -25v-1119q0 -24 -24 -27q-68 -12 -131 -12q-22 0 -24 24l-7 82q-217 -120 -407 -120q-142 0 -232 76.5t-90 225.5v726q0 52 -20 71.5t-59 19.5 q-20 0 -44 -3z" />
<glyph unicode="&#xda;" horiz-adv-x="1225" d="M21 1145q193 36 283 36q32 0 32 -32v-784q0 -142 71 -205t192 -63q116 0 280 80v954q0 23 24 28q63 12 138 12q24 0 24 -25v-1119q0 -24 -24 -27q-68 -12 -131 -12q-22 0 -24 24l-7 82q-217 -120 -407 -120q-142 0 -232 76.5t-90 225.5v726q0 52 -20 71.5t-59 19.5 q-20 0 -44 -3z" />
<glyph unicode="&#xdb;" horiz-adv-x="1225" d="M21 1145q193 36 283 36q32 0 32 -32v-784q0 -142 71 -205t192 -63q116 0 280 80v954q0 23 24 28q63 12 138 12q24 0 24 -25v-1119q0 -24 -24 -27q-68 -12 -131 -12q-22 0 -24 24l-7 82q-217 -120 -407 -120q-142 0 -232 76.5t-90 225.5v726q0 52 -20 71.5t-59 19.5 q-20 0 -44 -3z" />
<glyph unicode="&#xdc;" horiz-adv-x="1225" d="M21 1145q193 36 283 36q32 0 32 -32v-784q0 -142 71 -205t192 -63q116 0 280 80v954q0 23 24 28q63 12 138 12q24 0 24 -25v-1119q0 -24 -24 -27q-68 -12 -131 -12q-22 0 -24 24l-7 82q-217 -120 -407 -120q-142 0 -232 76.5t-90 225.5v726q0 52 -20 71.5t-59 19.5 q-20 0 -44 -3z" />
<glyph unicode="&#xdd;" horiz-adv-x="986" d="M-30 1146q76 16 151.5 25.5t95.5 9.5q14 0 22.5 -8t19.5 -27l284 -510l242 493q12 24 34 30q44 12 108 12q18 0 18 -12q0 -3 -6 -17l-359 -602v-513q0 -24 -24 -27q-68 -12 -138 -12q-24 0 -24 24v510l-277 494q-25 45 -47 62.5t-54 17.5q-12 0 -40 -5z" />
<glyph unicode="&#xde;" horiz-adv-x="1003" d="M31 1145q193 36 283 36q32 0 32 -32v-194q44 4 100 4q66 0 120 -4.5t113 -16t103 -33.5t81 -55t56 -84.5t19 -116.5q0 -83 -30 -149.5t-80 -110t-120.5 -72.5t-146.5 -42.5t-163 -16.5l-10 56q175 10 260 78t85 220q0 129 -81 199t-215 70q-28 0 -40.5 -0.5t-26.5 -4.5 t-19 -13.5t-5 -25.5v-810q0 -24 -24 -27q-68 -12 -138 -12q-24 0 -24 24v990q0 52 -20 71.5t-59 19.5q-21 0 -44 -3z" />
<glyph unicode="&#xdf;" horiz-adv-x="1061" d="M27 707q19 2 60 4.5t58 3.5v144q0 230 106 358.5t320 128.5q133 0 228 -75t95 -204q0 -64 -20.5 -114t-51.5 -79.5t-67.5 -57.5t-67.5 -49t-51.5 -52.5t-20.5 -69.5q0 -31 14.5 -57.5t44.5 -47.5t56 -35t69 -33q27 -12 35.5 -16t33.5 -16t34.5 -18.5t29.5 -20t28.5 -24 t22 -27t19 -32.5t10 -36.5t4.5 -43.5q0 -66 -30.5 -117t-80.5 -80.5t-107 -44.5t-116 -15q-53 0 -105.5 12.5t-96.5 47t-44 85.5q0 47 31.5 70t85.5 23q23 0 38 -3v-17q0 -68 30.5 -102.5t97.5 -34.5q54 0 89 29.5t35 84.5q0 26 -10 48t-23 37t-39.5 31t-45 24.5t-53.5 23.5 q-46 20 -80.5 40.5t-68.5 51.5t-52.5 72.5t-18.5 91.5q0 46 15 83.5t39 63t53 49t58 48.5t53 53t39 70.5t15 94.5q0 90 -51.5 149t-136.5 59q-62 0 -105.5 -22t-66 -63t-32 -90t-9.5 -113v-951q0 -24 -24 -27q-69 -12 -130 -12q-24 0 -24 24v631q-70 0 -115 -3z" />
<glyph unicode="&#xe0;" horiz-adv-x="811" d="M52 181q0 105 76 162q58 43 152 59.5t242 20.5l1 34q3 98 -30.5 146.5t-117.5 48.5q-96 0 -246 -48l-22 67q99 40 193 62.5t146 22.5q142 0 199.5 -68t55.5 -226l-5 -326q-1 -41 15 -111q1 -1 1 -8q0 -14 -20 -17q-60 -12 -127 -12q-19 0 -25 23l-13 48 q-75 -33 -153.5 -55.5t-116.5 -22.5q-67 0 -115.5 33t-69 77t-20.5 90zM204 1165q0 10 16 14q50 11 119 11q26 0 33 -27l80 -329l-7 -8h-54l-183 327q-4 7 -4 12zM228 216q0 -51 33.5 -88.5t111.5 -37.5q18 0 59.5 10t85.5 31l3 224q-13 -1 -50.5 -3t-50.5 -3t-41.5 -4 t-41 -6.5t-31 -9t-30 -13.5t-20.5 -19q-28 -33 -28 -81z" />
<glyph unicode="&#xe1;" horiz-adv-x="811" d="M52 181q0 105 76 162q58 43 152 59.5t242 20.5l1 34q3 98 -30.5 146.5t-117.5 48.5q-96 0 -246 -48l-22 67q99 40 193 62.5t146 22.5q142 0 199.5 -68t55.5 -226l-5 -326q-1 -41 15 -111q1 -1 1 -8q0 -14 -20 -17q-60 -12 -127 -12q-19 0 -25 23l-13 48 q-75 -33 -153.5 -55.5t-116.5 -22.5q-67 0 -115.5 33t-69 77t-20.5 90zM228 216q0 -51 33.5 -88.5t111.5 -37.5q18 0 59.5 10t85.5 31l3 224q-13 -1 -50.5 -3t-50.5 -3t-41.5 -4t-41 -6.5t-31 -9t-30 -13.5t-20.5 -19q-28 -33 -28 -81zM358 834l77 318q6 24 31 28 q54 10 130 10q17 0 17 -14q0 -5 -4 -12l-190 -338h-54z" />
<glyph unicode="&#xe2;" horiz-adv-x="811" d="M52 181q0 105 76 162q58 43 152 59.5t242 20.5l1 34q3 98 -30.5 146.5t-117.5 48.5q-96 0 -246 -48l-22 67q99 40 193 62.5t146 22.5q142 0 199.5 -68t55.5 -226l-5 -326q-1 -41 15 -111q1 -1 1 -8q0 -14 -20 -17q-60 -12 -127 -12q-19 0 -25 23l-13 48 q-75 -33 -153.5 -55.5t-116.5 -22.5q-67 0 -115.5 33t-69 77t-20.5 90zM152 834l169 317q13 24 33 28q69 11 97 11q21 0 35 -27l173 -329l-7 -8h-61l-184 224h-8l-184 -224h-57zM228 216q0 -51 33.5 -88.5t111.5 -37.5q18 0 59.5 10t85.5 31l3 224q-13 -1 -50.5 -3t-50.5 -3 t-41.5 -4t-41 -6.5t-31 -9t-30 -13.5t-20.5 -19q-28 -33 -28 -81z" />
<glyph unicode="&#xe3;" horiz-adv-x="811" d="M52 181q0 105 76 162q58 43 152 59.5t242 20.5l1 34q3 98 -30.5 146.5t-117.5 48.5q-96 0 -246 -48l-22 67q99 40 193 62.5t146 22.5q142 0 199.5 -68t55.5 -226l-5 -326q-1 -41 15 -111q1 -1 1 -8q0 -14 -20 -17q-60 -12 -127 -12q-19 0 -25 23l-13 48 q-75 -33 -153.5 -55.5t-116.5 -22.5q-67 0 -115.5 33t-69 77t-20.5 90zM130 949q110 183 200 183q42 0 129 -51q68 -39 90 -39q47 0 116 88l44 -26q-104 -187 -199 -187q-33 0 -115 47q-73 43 -100 43q-46 0 -118 -94zM228 216q0 -51 33.5 -88.5t111.5 -37.5q18 0 59.5 10 t85.5 31l3 224q-13 -1 -50.5 -3t-50.5 -3t-41.5 -4t-41 -6.5t-31 -9t-30 -13.5t-20.5 -19q-28 -33 -28 -81z" />
<glyph unicode="&#xe4;" horiz-adv-x="811" d="M52 181q0 105 76 162q58 43 152 59.5t242 20.5l1 34q3 98 -30.5 146.5t-117.5 48.5q-96 0 -246 -48l-22 67q99 40 193 62.5t146 22.5q142 0 199.5 -68t55.5 -226l-5 -326q-1 -41 15 -111q1 -1 1 -8q0 -14 -20 -17q-60 -12 -127 -12q-19 0 -25 23l-13 48 q-75 -33 -153.5 -55.5t-116.5 -22.5q-67 0 -115.5 33t-69 77t-20.5 90zM144 1057q0 97 108 97q42 0 65 -25.5t23 -71.5q0 -99 -107 -99q-42 0 -65.5 26.5t-23.5 72.5zM228 216q0 -51 33.5 -88.5t111.5 -37.5q18 0 59.5 10t85.5 31l3 224q-13 -1 -50.5 -3t-50.5 -3t-41.5 -4 t-41 -6.5t-31 -9t-30 -13.5t-20.5 -19q-28 -33 -28 -81zM470 1057q0 97 109 97q42 0 65 -25.5t23 -71.5q0 -99 -107 -99q-42 0 -66 27t-24 72z" />
<glyph unicode="&#xe5;" horiz-adv-x="811" d="M52 181q0 105 76 162q58 43 152 59.5t242 20.5l1 34q3 98 -30.5 146.5t-117.5 48.5q-96 0 -246 -48l-22 67q99 40 193 62.5t146 22.5q142 0 199.5 -68t55.5 -226l-5 -326q-1 -41 15 -111q1 -1 1 -8q0 -14 -20 -17q-60 -12 -127 -12q-19 0 -25 23l-13 48 q-75 -33 -153.5 -55.5t-116.5 -22.5q-67 0 -115.5 33t-69 77t-20.5 90zM228 216q0 -51 33.5 -88.5t111.5 -37.5q18 0 59.5 10t85.5 31l3 224q-13 -1 -50.5 -3t-50.5 -3t-41.5 -4t-41 -6.5t-31 -9t-30 -13.5t-20.5 -19q-28 -33 -28 -81z" />
<glyph unicode="&#xe6;" horiz-adv-x="1249" d="M52 181q0 104 75 162q55 43 149.5 61.5t236.5 25.5v27q0 100 -30.5 147.5t-113.5 47.5q-99 0 -240 -48l-22 67q95 40 188.5 62.5t144.5 22.5q84 0 132.5 -25.5t79.5 -80.5q122 104 286 104q110 0 172.5 -64.5t62.5 -168.5q0 -42 -17 -110l-465 -30q9 -126 86.5 -203 t216.5 -77q105 0 198 40l22 -56q-90 -44 -200 -74t-168 -30q-155 0 -246 109q-228 -109 -345 -109q-97 0 -150 63t-53 137zM228 216q0 -50 33 -88t110 -38q19 0 74 15t115 46q-47 82 -47 214q-13 -1 -43 -4.5t-42 -4.5t-36.5 -4.5t-36 -6.5t-30 -7.5t-29 -10t-21.5 -13.5 t-19 -17q-28 -33 -28 -81zM690 442l302 27q5 24 5 54q0 59 -33.5 97.5t-91.5 38.5q-89 0 -134.5 -61t-47.5 -156z" />
<glyph unicode="&#xe7;" horiz-adv-x="786" d="M60 345q0 183 129 296t321 113q55 0 100 -12.5t77.5 -46.5t32.5 -87q0 -51 -33.5 -75.5t-88.5 -24.5q-22 0 -44 3v19q0 68 -21.5 99.5t-92.5 31.5q-105 0 -154 -65.5t-49 -171.5q0 -143 76 -233t222 -90q90 0 193 35l23 -56q-149 -65 -284 -89l-58 -99q67 -8 104.5 -47.5 t37.5 -92.5q0 -49 -25 -84.5t-66 -54t-85 -27t-91 -8.5h-13l-8 61q88 14 117 30q40 25 41 68q0 35 -30 54.5t-68 19.5h-6q-8 0 -9 -1l-19 43l98 130q-102 1 -177.5 52.5t-112.5 132t-37 177.5z" />
<glyph unicode="&#xe8;" horiz-adv-x="801" d="M60 345q0 180 124.5 294.5t303.5 114.5q111 0 174 -64.5t63 -168.5q0 -42 -17 -110l-470 -25q9 -130 87.5 -207.5t218.5 -77.5q101 0 200 40l22 -56q-93 -45 -201.5 -74.5t-169.5 -29.5q-78 0 -143 30t-106 81t-63.5 116t-22.5 137zM224 1165q0 10 16 14q50 11 119 11 q26 0 33 -27l80 -329l-7 -8h-54l-183 327q-4 7 -4 12zM237 447l307 22q5 24 5 54q0 59 -34 97.5t-93 38.5q-90 0 -136.5 -60t-48.5 -152z" />
<glyph unicode="&#xe9;" horiz-adv-x="801" d="M60 345q0 180 124.5 294.5t303.5 114.5q111 0 174 -64.5t63 -168.5q0 -42 -17 -110l-470 -25q9 -130 87.5 -207.5t218.5 -77.5q101 0 200 40l22 -56q-93 -45 -201.5 -74.5t-169.5 -29.5q-78 0 -143 30t-106 81t-63.5 116t-22.5 137zM237 447l307 22q5 24 5 54 q0 59 -34 97.5t-93 38.5q-90 0 -136.5 -60t-48.5 -152zM378 834l77 318q6 24 31 28q54 10 130 10q17 0 17 -14q0 -5 -4 -12l-190 -338h-54z" />
<glyph unicode="&#xea;" horiz-adv-x="801" d="M60 345q0 180 124.5 294.5t303.5 114.5q111 0 174 -64.5t63 -168.5q0 -42 -17 -110l-470 -25q9 -130 87.5 -207.5t218.5 -77.5q101 0 200 40l22 -56q-93 -45 -201.5 -74.5t-169.5 -29.5q-78 0 -143 30t-106 81t-63.5 116t-22.5 137zM172 834l169 317q13 24 33 28 q69 11 97 11q21 0 35 -27l173 -329l-7 -8h-61l-184 224h-8l-184 -224h-57zM237 447l307 22q5 24 5 54q0 59 -34 97.5t-93 38.5q-90 0 -136.5 -60t-48.5 -152z" />
<glyph unicode="&#xeb;" horiz-adv-x="801" d="M60 345q0 180 124.5 294.5t303.5 114.5q111 0 174 -64.5t63 -168.5q0 -42 -17 -110l-470 -25q9 -130 87.5 -207.5t218.5 -77.5q101 0 200 40l22 -56q-93 -45 -201.5 -74.5t-169.5 -29.5q-78 0 -143 30t-106 81t-63.5 116t-22.5 137zM164 1057q0 97 108 97q42 0 65 -25.5 t23 -71.5q0 -99 -107 -99q-42 0 -65.5 26.5t-23.5 72.5zM237 447l307 22q5 24 5 54q0 59 -34 97.5t-93 38.5q-90 0 -136.5 -60t-48.5 -152zM490 1057q0 97 109 97q42 0 65 -25.5t23 -71.5q0 -99 -107 -99q-42 0 -66 27t-24 72z" />
<glyph unicode="&#xec;" horiz-adv-x="458" d="M22 1165q0 10 16 14q50 11 119 11q26 0 33 -27l80 -329l-7 -8h-54l-183 327q-4 7 -4 12z" />
<glyph unicode="&#xed;" horiz-adv-x="458" d="M176 834l77 318q6 24 31 28q54 10 130 10q17 0 17 -14q0 -5 -4 -12l-190 -338h-54z" />
<glyph unicode="&#xee;" horiz-adv-x="458" d="M-30 834l169 317q13 24 33 28q69 11 97 11q21 0 35 -27l173 -329l-7 -8h-61l-184 224h-8l-184 -224h-57z" />
<glyph unicode="&#xef;" horiz-adv-x="458" d="M-38 1057q0 97 108 97q42 0 65 -25.5t23 -71.5q0 -99 -107 -99q-42 0 -65.5 26.5t-23.5 72.5zM288 1057q0 97 109 97q42 0 65 -25.5t23 -71.5q0 -99 -107 -99q-42 0 -66 27t-24 72z" />
<glyph unicode="&#xf0;" horiz-adv-x="938" d="M65 369q0 163 118 274t292 111q81 0 160 -17q-54 207 -139 314l-179 -151l-56 54l181 156q-95 97 -274 164l20 70q81 -16 184 -61t164 -92l180 155l48 -70l-165 -139q259 -238 259 -661q0 -82 -14.5 -153.5t-47 -135t-81 -108.5t-121.5 -71.5t-164 -26.5 q-164 0 -264.5 112t-100.5 276zM249 407q0 -61 13.5 -119.5t39.5 -108.5t70 -80.5t100 -30.5q205 0 205 318q0 121 -17 226q-104 54 -191 54q-111 0 -165.5 -72.5t-54.5 -186.5z" />
<glyph unicode="&#xf1;" horiz-adv-x="979" d="M32 693q96 27 171 41.5t94 14.5q30 0 33 -36l3 -42q227 83 317 83q110 0 163 -65.5t51 -180.5l-5 -481q0 -24 -24 -27q-65 -12 -130 -12q-24 0 -24 24l5 398v15q0 112 -38.5 165.5t-130.5 53.5q-72 0 -184 -49v-568q0 -24 -24 -27q-64 -12 -130 -12q-24 0 -24 24v545 q0 52 -16.5 72t-54.5 20q-26 0 -46 -4zM210 949q110 183 200 183q42 0 129 -51q68 -39 90 -39q47 0 116 88l44 -26q-104 -187 -199 -187q-33 0 -115 47q-73 43 -100 43q-46 0 -118 -94z" />
<glyph unicode="&#xf2;" horiz-adv-x="910" d="M65 360q0 176 114.5 285t294.5 109q164 0 267.5 -106t103.5 -266q0 -180 -114 -290.5t-297 -110.5q-163 0 -266 108.5t-103 270.5zM250 408q0 -59 12.5 -116t38 -108.5t72.5 -83.5t108 -32q52 0 89 23t55.5 62t26.5 81t8 91q0 58 -12 114.5t-37.5 109t-72 85t-108.5 32.5 q-51 0 -88 -23t-56 -62t-27.5 -81.5t-8.5 -91.5zM254 1165q0 10 16 14q50 11 119 11q26 0 33 -27l80 -329l-7 -8h-54l-183 327q-4 7 -4 12z" />
<glyph unicode="&#xf3;" horiz-adv-x="910" d="M65 360q0 176 114.5 285t294.5 109q164 0 267.5 -106t103.5 -266q0 -180 -114 -290.5t-297 -110.5q-163 0 -266 108.5t-103 270.5zM250 408q0 -59 12.5 -116t38 -108.5t72.5 -83.5t108 -32q52 0 89 23t55.5 62t26.5 81t8 91q0 58 -12 114.5t-37.5 109t-72 85t-108.5 32.5 q-51 0 -88 -23t-56 -62t-27.5 -81.5t-8.5 -91.5zM408 834l77 318q6 24 31 28q54 10 130 10q17 0 17 -14q0 -5 -4 -12l-190 -338h-54z" />
<glyph unicode="&#xf4;" horiz-adv-x="910" d="M65 360q0 176 114.5 285t294.5 109q164 0 267.5 -106t103.5 -266q0 -180 -114 -290.5t-297 -110.5q-163 0 -266 108.5t-103 270.5zM202 834l169 317q13 24 33 28q69 11 97 11q21 0 35 -27l173 -329l-7 -8h-61l-184 224h-8l-184 -224h-57zM250 408q0 -59 12.5 -116 t38 -108.5t72.5 -83.5t108 -32q52 0 89 23t55.5 62t26.5 81t8 91q0 58 -12 114.5t-37.5 109t-72 85t-108.5 32.5q-51 0 -88 -23t-56 -62t-27.5 -81.5t-8.5 -91.5z" />
<glyph unicode="&#xf5;" horiz-adv-x="910" d="M65 360q0 176 114.5 285t294.5 109q164 0 267.5 -106t103.5 -266q0 -180 -114 -290.5t-297 -110.5q-163 0 -266 108.5t-103 270.5zM175 949q110 183 200 183q42 0 129 -51q68 -39 90 -39q47 0 116 88l44 -26q-104 -187 -199 -187q-33 0 -115 47q-73 43 -100 43 q-46 0 -118 -94zM250 408q0 -59 12.5 -116t38 -108.5t72.5 -83.5t108 -32q52 0 89 23t55.5 62t26.5 81t8 91q0 58 -12 114.5t-37.5 109t-72 85t-108.5 32.5q-51 0 -88 -23t-56 -62t-27.5 -81.5t-8.5 -91.5z" />
<glyph unicode="&#xf6;" horiz-adv-x="910" d="M65 360q0 176 114.5 285t294.5 109q164 0 267.5 -106t103.5 -266q0 -180 -114 -290.5t-297 -110.5q-163 0 -266 108.5t-103 270.5zM194 1057q0 97 108 97q42 0 65 -25.5t23 -71.5q0 -99 -107 -99q-42 0 -65.5 26.5t-23.5 72.5zM250 408q0 -59 12.5 -116t38 -108.5 t72.5 -83.5t108 -32q52 0 89 23t55.5 62t26.5 81t8 91q0 58 -12 114.5t-37.5 109t-72 85t-108.5 32.5q-51 0 -88 -23t-56 -62t-27.5 -81.5t-8.5 -91.5zM520 1057q0 97 109 97q42 0 65 -25.5t23 -71.5q0 -99 -107 -99q-42 0 -66 27t-24 72z" />
<glyph unicode="&#xf7;" d="M40 429h725l-15 -72l-705 -4zM321 157q0 81 89 81q35 0 54 -21.5t19 -59.5q0 -81 -89 -81q-35 0 -54 22t-19 59zM321 627q0 81 89 81q35 0 54 -21.5t19 -59.5q0 -81 -89 -81q-35 0 -54 22t-19 59z" />
<glyph unicode="&#xf8;" horiz-adv-x="910" d="M65 360q0 176 114.5 285t294.5 109q126 0 222 -69l64 71l55 -41l-68 -75q98 -104 98 -258q0 -180 -114 -290.5t-297 -110.5q-124 0 -219 68l-65 -70l-55 40l69 76q-99 105 -99 265zM247 408q0 -105 31 -186l320 355q-58 91 -168 91q-53 0 -90.5 -23t-56.5 -63 t-27.5 -82.5t-8.5 -91.5zM311 157q60 -91 170 -91q53 0 90.5 23t56.5 62.5t27 82t8 91.5q0 103 -32 186z" />
<glyph unicode="&#xf9;" horiz-adv-x="983" d="M35 693q65 18 128 32t96.5 19t44.5 5q32 0 32 -36l-5 -389v-15q0 -111 38.5 -164.5t129.5 -53.5q71 0 181 48v418q0 52 -16.5 72t-53.5 20q-27 0 -47 -4l-6 48q65 18 128 32t96.5 19t44.5 5q32 0 32 -36v-571q0 -30 15 -117l1 -6q0 -17 -20 -19q-68 -12 -129 -12 q-19 0 -25 23l-15 56q-224 -86 -318 -86q-108 0 -162 65.5t-52 179.5l5 331q1 52 -16 72t-54 20q-27 0 -47 -4zM299 1165q0 10 16 14q50 11 119 11q26 0 33 -27l80 -329l-7 -8h-54l-183 327q-4 7 -4 12z" />
<glyph unicode="&#xfa;" horiz-adv-x="983" d="M35 693q65 18 128 32t96.5 19t44.5 5q32 0 32 -36l-5 -389v-15q0 -111 38.5 -164.5t129.5 -53.5q71 0 181 48v418q0 52 -16.5 72t-53.5 20q-27 0 -47 -4l-6 48q65 18 128 32t96.5 19t44.5 5q32 0 32 -36v-571q0 -30 15 -117l1 -6q0 -17 -20 -19q-68 -12 -129 -12 q-19 0 -25 23l-15 56q-224 -86 -318 -86q-108 0 -162 65.5t-52 179.5l5 331q1 52 -16 72t-54 20q-27 0 -47 -4zM453 834l77 318q6 24 31 28q54 10 130 10q17 0 17 -14q0 -5 -4 -12l-190 -338h-54z" />
<glyph unicode="&#xfb;" horiz-adv-x="983" d="M35 693q65 18 128 32t96.5 19t44.5 5q32 0 32 -36l-5 -389v-15q0 -111 38.5 -164.5t129.5 -53.5q71 0 181 48v418q0 52 -16.5 72t-53.5 20q-27 0 -47 -4l-6 48q65 18 128 32t96.5 19t44.5 5q32 0 32 -36v-571q0 -30 15 -117l1 -6q0 -17 -20 -19q-68 -12 -129 -12 q-19 0 -25 23l-15 56q-224 -86 -318 -86q-108 0 -162 65.5t-52 179.5l5 331q1 52 -16 72t-54 20q-27 0 -47 -4zM247 834l169 317q13 24 33 28q69 11 97 11q21 0 35 -27l173 -329l-7 -8h-61l-184 224h-8l-184 -224h-57z" />
<glyph unicode="&#xfc;" horiz-adv-x="983" d="M35 693q65 18 128 32t96.5 19t44.5 5q32 0 32 -36l-5 -389v-15q0 -111 38.5 -164.5t129.5 -53.5q71 0 181 48v418q0 52 -16.5 72t-53.5 20q-27 0 -47 -4l-6 48q65 18 128 32t96.5 19t44.5 5q32 0 32 -36v-571q0 -30 15 -117l1 -6q0 -17 -20 -19q-68 -12 -129 -12 q-19 0 -25 23l-15 56q-224 -86 -318 -86q-108 0 -162 65.5t-52 179.5l5 331q1 52 -16 72t-54 20q-27 0 -47 -4zM239 1057q0 97 108 97q42 0 65 -25.5t23 -71.5q0 -99 -107 -99q-42 0 -65.5 26.5t-23.5 72.5zM565 1057q0 97 109 97q42 0 65 -25.5t23 -71.5q0 -99 -107 -99 q-42 0 -66 27t-24 72z" />
<glyph unicode="&#xfd;" horiz-adv-x="817" d="M-23 693q73 22 154.5 38.5t98.5 16.5q14 0 21 -8t15 -28l193 -498h4l187 487q10 24 33 30q66 17 109 17q18 0 18 -12q0 -5 -5 -17q-277 -547 -412 -878q-12 -31 -17.5 -43.5t-19.5 -43.5t-23 -47t-26 -43.5t-31 -42.5t-34.5 -34.5t-41 -29.5t-46.5 -17t-54 -7 q-50 0 -81.5 29.5t-31.5 71.5q0 38 23 65q44 -24 88 -24q61 0 112.5 43.5t101.5 154.5l58 127l-249 570q-19 45 -41 62t-54 17q-22 0 -43 -4zM403 834l77 318q6 24 31 28q54 10 130 10q17 0 17 -14q0 -5 -4 -12l-190 -338h-54z" />
<glyph unicode="&#xfe;" horiz-adv-x="984" d="M20 1291q97 27 171.5 41t94.5 14q32 0 32 -36v-633q258 77 342 77q73 0 132 -57t88 -136t29 -158q0 -102 -38 -183.5t-103 -133t-147 -78.5t-173 -27q-60 0 -130 14v-417q0 -24 -24 -28q-64 -12 -130 -12q-24 0 -24 25v1591q0 52 -16.5 72t-56.5 20q-19 0 -41 -3z M318 177q0 -52 49 -82t122 -30q243 0 243 250q0 79 -23 153.5t-72 126t-112 51.5q-64 0 -207 -44v-425z" />
<glyph unicode="&#xff;" horiz-adv-x="817" d="M-23 693q73 22 154.5 38.5t98.5 16.5q14 0 21 -8t15 -28l193 -498h4l187 487q10 24 33 30q66 17 109 17q18 0 18 -12q0 -5 -5 -17q-277 -547 -412 -878q-12 -31 -17.5 -43.5t-19.5 -43.5t-23 -47t-26 -43.5t-31 -42.5t-34.5 -34.5t-41 -29.5t-46.5 -17t-54 -7 q-50 0 -81.5 29.5t-31.5 71.5q0 38 23 65q44 -24 88 -24q61 0 112.5 43.5t101.5 154.5l58 127l-249 570q-19 45 -41 62t-54 17q-22 0 -43 -4zM189 1057q0 97 108 97q42 0 65 -25.5t23 -71.5q0 -99 -107 -99q-42 0 -65.5 26.5t-23.5 72.5zM515 1057q0 97 109 97 q42 0 65 -25.5t23 -71.5q0 -99 -107 -99q-42 0 -66 27t-24 72z" />
<glyph unicode="&#x152;" horiz-adv-x="1810" d="M79 565q0 285 169.5 452.5t461.5 167.5q67 0 199.5 -13.5t246.5 -13.5h366q33 0 153 2q17 0 18 -15q12 -165 12 -256l-50 -5q-9 37 -16.5 62.5t-18.5 47t-19 34.5t-25 23t-29.5 14.5t-39.5 7t-47 3t-60 0.5h-176q-32 0 -37.5 -5.5t-5.5 -31.5v-406q378 19 389 19 q28 0 28 -30q0 -28 -7 -82l-410 14v-420q0 -33 12.5 -41t60.5 -8h129h59t48.5 1.5t42.5 4t34.5 8t31 13t25.5 19.5t24.5 26t22 35.5t24 45t24.5 56.5l50 -11q0 -18 -17 -108.5t-33 -143.5q-11 -33 -49 -33q-35 0 -201.5 1t-283.5 1q-176 0 -338.5 -13t-198.5 -13 q-176 0 -306.5 77.5t-196.5 210.5t-66 303zM285 618q0 -88 14.5 -167.5t47.5 -152.5t82 -126t123.5 -84.5t167.5 -31.5q43 0 87 8t88.5 25t72 50.5t27.5 78.5v714q0 40 -19.5 71t-49 49.5t-69.5 30t-76 15.5t-73 4q-112 0 -195 -37.5t-132 -104.5t-72.5 -152.5t-23.5 -189.5 z" />
<glyph unicode="&#x153;" horiz-adv-x="1387" d="M65 360q0 176 112.5 285t290.5 109q182 0 287 -140q127 140 321 140q110 0 172.5 -64.5t62.5 -168.5q0 -42 -17 -110l-465 -25q9 -130 86.5 -207.5t216.5 -77.5q105 0 198 40l22 -56q-90 -44 -200 -74t-168 -30q-162 0 -254 125q-112 -125 -302 -125q-160 0 -261.5 108.5 t-101.5 270.5zM250 408q0 -59 12 -116t37 -108.5t71 -83.5t106 -32q51 0 87.5 23t54.5 62t26 81t8 91q0 58 -12 114.5t-36.5 109t-70.5 85t-107 32.5q-50 0 -86.5 -23t-55 -62t-26.5 -81.5t-8 -91.5zM828 447l302 22q5 24 5 54q0 59 -33.5 97.5t-91.5 38.5q-88 0 -134 -60.5 t-48 -151.5z" />
<glyph unicode="&#x178;" horiz-adv-x="986" d="M-30 1146q76 16 151.5 25.5t95.5 9.5q14 0 22.5 -8t19.5 -27l284 -510l242 493q12 24 34 30q44 12 108 12q18 0 18 -12q0 -3 -6 -17l-359 -602v-513q0 -24 -24 -27q-68 -12 -138 -12q-24 0 -24 24v510l-277 494q-25 45 -47 62.5t-54 17.5q-12 0 -40 -5z" />
<glyph unicode="&#x2c6;" horiz-adv-x="500" d="M-3 834l169 317q13 24 33 28q69 11 97 11q21 0 35 -27l173 -329l-7 -8h-61l-184 224h-8l-184 -224h-57z" />
<glyph unicode="&#x2dc;" horiz-adv-x="500" d="M-30 949q110 183 200 183q42 0 129 -51q68 -39 90 -39q47 0 116 88l44 -26q-104 -187 -199 -187q-33 0 -115 47q-73 43 -100 43q-46 0 -118 -94z" />
<glyph unicode="&#x2000;" horiz-adv-x="694" />
<glyph unicode="&#x2001;" horiz-adv-x="1388" />
<glyph unicode="&#x2002;" horiz-adv-x="694" />
<glyph unicode="&#x2003;" horiz-adv-x="1388" />
<glyph unicode="&#x2004;" horiz-adv-x="462" />
<glyph unicode="&#x2005;" horiz-adv-x="347" />
<glyph unicode="&#x2006;" horiz-adv-x="231" />
<glyph unicode="&#x2007;" horiz-adv-x="231" />
<glyph unicode="&#x2008;" horiz-adv-x="173" />
<glyph unicode="&#x2009;" horiz-adv-x="277" />
<glyph unicode="&#x200a;" horiz-adv-x="77" />
<glyph unicode="&#x2010;" horiz-adv-x="605" d="M46 441h513l-5 -92l-503 -4z" />
<glyph unicode="&#x2011;" horiz-adv-x="605" d="M46 441h513l-5 -92l-503 -4z" />
<glyph unicode="&#x2012;" horiz-adv-x="605" d="M46 441h513l-5 -92l-503 -4z" />
<glyph unicode="&#x2013;" horiz-adv-x="1024" d="M40 441h944l-5 -92l-934 -4z" />
<glyph unicode="&#x2014;" horiz-adv-x="2048" d="M40 441h1968l-5 -92l-1958 -4z" />
<glyph unicode="&#x2018;" horiz-adv-x="380" d="M100 955q0 99 54.5 184t155.5 125l30 -27q-90 -74 -90 -196q0 -82 39 -148q9 -22 -11 -28q-77 -20 -132 -20q-21 0 -31 25q-15 35 -15 85z" />
<glyph unicode="&#x2019;" horiz-adv-x="380" d="M40 863q90 74 90 196q0 82 -39 148q-9 22 11 28q77 20 132 20q21 0 31 -25q15 -35 15 -85q0 -99 -54.5 -183.5t-155.5 -125.5z" />
<glyph unicode="&#x201a;" horiz-adv-x="380" d="M80 -201q90 74 90 196q0 81 -39 147q-9 22 11 28q77 20 132 20q21 0 31 -25q15 -35 15 -85q0 -99 -54.5 -183t-155.5 -125z" />
<glyph unicode="&#x201c;" horiz-adv-x="640" d="M83 955q0 99 54.5 184t155.5 125l30 -27q-90 -74 -90 -196q0 -82 39 -148q9 -22 -11 -28q-77 -20 -132 -20q-21 0 -31 25q-15 35 -15 85zM360 955q0 99 54.5 184t155.5 125l30 -27q-90 -74 -90 -196q0 -82 39 -148q9 -22 -11 -28q-77 -20 -132 -20q-21 0 -31 25 q-15 35 -15 85z" />
<glyph unicode="&#x201d;" horiz-adv-x="640" d="M40 863q90 74 90 196q0 82 -39 148q-9 22 11 28q77 20 132 20q21 0 31 -25q15 -35 15 -85q0 -99 -54.5 -183.5t-155.5 -125.5zM320 863q90 74 90 196q0 82 -39 148q-9 22 11 28q77 20 132 20q21 0 31 -25q15 -35 15 -85q0 -99 -54.5 -183.5t-155.5 -125.5z" />
<glyph unicode="&#x201e;" horiz-adv-x="640" d="M63 -201q90 74 90 196q0 81 -39 147q-9 22 11 28q77 20 132 20q21 0 31 -25q15 -35 15 -85q0 -99 -54.5 -183t-155.5 -125zM340 -201q90 74 90 196q0 81 -39 147q-9 22 11 28q77 20 132 20q21 0 31 -25q15 -35 15 -85q0 -99 -54.5 -183t-155.5 -125z" />
<glyph unicode="&#x2022;" horiz-adv-x="785" d="M20 592l143 143l100 -98l53 53l-97 101l142 143l143 -143l-98 -101l55 -53l99 98l145 -143l-145 -142l-99 97l-55 -56l98 -97l-143 -145l-142 145l97 97l-53 56l-100 -100zM107 592l56 -55l56 55l-56 54zM307 394l54 -56l56 56l-56 53zM307 592l54 -55l56 55l-56 54z M307 791l54 -56l56 56l-56 53zM507 592l53 -55l56 55l-56 55z" />
<glyph unicode="&#x2026;" horiz-adv-x="1060" d="M80 78q0 105 116 105q45 0 69.5 -28t24.5 -77q0 -104 -115 -104q-45 0 -70 28t-25 76zM430 78q0 105 116 105q45 0 69.5 -28t24.5 -77q0 -104 -115 -104q-45 0 -70 28t-25 76zM780 78q0 105 116 105q45 0 69.5 -28t24.5 -77q0 -104 -115 -104q-45 0 -70 28t-25 76z" />
<glyph unicode="&#x202f;" horiz-adv-x="277" />
<glyph unicode="&#x2039;" horiz-adv-x="417" d="M90 213v318q76 10 131.5 51t88.5 141h16q11 -46 11 -81q0 -95 -57.5 -167t-160.5 -83v-40q104 -14 161 -83.5t57 -166.5q0 -35 -11 -81h-16q-38 101 -93 141.5t-127 50.5z" />
<glyph unicode="&#x203a;" horiz-adv-x="417" d="M80 102q0 95 57.5 167t160.5 83v40q-104 14 -161 83.5t-57 166.5q0 35 11 81h16q20 -54 45.5 -91t55.5 -57t57.5 -29.5t61.5 -14.5v-318q-76 -10 -131.5 -51t-88.5 -141h-16q-11 46 -11 81z" />
<glyph unicode="&#x205f;" horiz-adv-x="347" />
<glyph unicode="&#x20ac;" horiz-adv-x="1013" d="M40 609h119q32 183 168 287.5t342 104.5q44 0 87.5 -6t90.5 -20t76 -45t29 -75q0 -48 -31.5 -71t-82.5 -23q-20 0 -41 3v28q0 137 -169 137q-69 0 -123.5 -26.5t-88.5 -72.5t-54.5 -101t-27.5 -120h431l-15 -72l-420 -3q0 -61 7 -111h389l-15 -72l-357 -3 q38 -128 128 -204t228 -76q106 0 222 63l26 -60q-150 -95 -332 -95q-177 0 -298.5 102.5t-160.5 268.5h-112l-5 76h104q-4 32 -4 78v14q0 11 1 18h-106z" />
<glyph unicode="&#x2122;" horiz-adv-x="1390" d="M10 974q0 13 5.5 90.5t8.5 106.5q1 10 13 10q184 -2 241 -2h48q68 0 244 2q11 0 12 -10q10 -86 10 -197l-38 -3q-8 42 -13 64t-16.5 42t-19 27t-32 12.5t-43.5 6t-64 0.5v-521q0 -15 -19 -19q-44 -11 -90 -11q-19 0 -19 18v533q-45 0 -64.5 -0.5t-43.5 -6t-31.5 -12.5 t-19.5 -27t-17 -42t-14 -64zM601 580q0 5 1 6l108 508l-24 66l-2 8q0 9 17 12q70 11 96 11q14 0 20 -17l159 -416l154 340l-8 62q-3 16 13 20q52 11 94 11q18 0 20 -17l69 -563q1 -2 1 -10q0 -15 -13 -18q-39 -11 -98 -11q-15 0 -17 11l-49 403l-161 -402q-1 -8 -15 -9 q-16 -3 -48 -3q-12 0 -17 11l-156 413l-49 -409q-1 -4 -15 -10q-20 -5 -67 -5q-13 0 -13 8z" />
<glyph unicode="&#x25fc;" horiz-adv-x="750" d="M0 0v750h750v-750h-750z" />
<glyph unicode="&#xfb01;" horiz-adv-x="2048" />
<glyph unicode="&#xfb02;" horiz-adv-x="2048" />
<glyph unicode="&#xfb03;" horiz-adv-x="2048" />
<glyph unicode="&#xfb04;" horiz-adv-x="2048" />
</font>
</defs>
</svg>
